&title=春暮るる
&artist=冬座敷
&first=1.04
&des=桜日和。
&des_5=
&lv_5=13+
&inote_5=(125)
{1},
{4}7h[4:2],,,
,3h[4:2],,,
{8},,5,4,3,2,8,7,6,5,
{16}24,,3,5,
4,7,2,8,
1,6,3,4,
{16}5,,2,,5^2[8:1],,4,6,5,,,,8^5[8:1],,7,1,8,,,,
{16}2,,3,4,1h[8:1],,7h[8:1],,5-1[8:1],,,,8,,7,,
{16}6/2,,5,,3/4,,2,,3,,{24}5,4,6,
{16}5,,7/3,,6h[8:1],,5h[8:1],,4h[8:1],,3h[4:1],,,,4,3,4,3,5,,
{16}6^1[8:1],,7,5,6,,,,2^5[8:1],,3,1,2,,,,
{16}7,,6,5,8h[8:1],,2h[8:1],,4-8[8:1],,,,1,,2,,
{16}7/3,,4,,6/5,,7,,87,,6,,54,,3,,24,,7,8,7,,2,1,2,,45,,27,,,,
{16}1qq2[2:1]/7h[4:1],,,,
,,,,
6h[4:1],,,,
,,,,
5/3h[4:1],,,,
4h[4:1],,,,
5V74[4:1],,,,
,,,,
2,,3h[8:1],,4-2[8:1],,,,7,,6h[8:1],,1-5[8:1],,,,8,,7,,6,,3,4,2,,6,5,7,,2,1,
{16}2^5[8:1],,,,8,,7,,6^1[8:1],,,,4,,3,,2/1,,8,,7/5,,6,,25,,
{24}3,4,3,{16}4,,25,,
{16}1/6,,7,,81,,2,,34,,6,,57,,8,,
{16}1/8,,2,4,3,,8,5,6v1[8:1]*v3[8:1],,,,,,,,
{16}2b^5[8:1],,1,,5,,6,6,7^4[8:1],,8,,4,,3,,
{16}2pp4[8:1],,1,,8^5[8:1]*^2[8:1],,7,,8b,,,,3/4,,2,,
{16}1/5-3[8:1],,6,,7/5,,8,,12,,7,8,6,,3/4,,
{16}2/5,,1^4[8:1]/6,,8/7h[8:3],,1,,,,{32}5,6,7,8,1,2,3,4,5,,,,
{16}7b^4[8:1],,8,,4,,3,3,2^5[8:1],,1,,5,,6,,
{16}7qq5[8:1],,8,,1^4[8:1]*^7[8:1],,2,,1b,,,,6/5,,7,,
{16}8/4-6[8:1],,3,,2/4,,1,1,8,,6,,75,,4,,
{16}3,,2,1,2h[8:1],,7,8,7h[8:1],,2,4,3h[8:1],,6,,
{16}5/7,,8,8,4pp4[4:1],,3,,2h[8:1],,,,2,,3,,4/5,,6,,7/8,,1/8,,2,4,,7,5,,3/6,,
{8}4-1[8:1]/5,,,,5-8[8:1],,,,
{16}27,,3,4,2,6,5,7,18,,,,
{16}2,,3,,4^1[8:1]/5,,3,5,4,,6,,8^5[8:1]/1,,7,1,8,,2,,
{16}35,,4,6,5h[8:1],,7h[8:1],,1-5[8:1],,,,8,,7,,
{16}6/4,,5,,3/4,,2,,3,,{24}5,4,6,
{16}5,,7/3,,6h[8:1],,5h[8:1],,4h[8:1],,2h[4:1],,,,8,1,7,8,6,,
{16}4^1[8:1]/5,,3,5,4,,6,,8^5[8:1]/1,,7,1,8,,2,,
{16}3/5,,4,6,5h[8:1],,7h[8:1],,1-5[8:1],,,,8,,7,,
{16}4/6,,5,,3/4,,2,,1/2,,3,,4/5,,6,,7/5,,2,1,3,,7,8,6,,5/4,,7/2,,,,
{8}7h[8:1]/1,1,6/2h[8:1],6,3/7h[8:1],3,8/4h[8:1],8,
{8}1h[8:1]/2,2,4h[8:1]/3,3,5h[8:1]/6,6,8h[8:1]/7,7,
{8}6h[8:1]/1,1,3h[8:1]/4,4,8h[8:1]/2,2,5h[8:1]/7,7,
{8}6h[8:1]/4,4,5h[8:1]/3,3,4/2,
{24}3,4,3,
{16}4,,2/5,,1^4[8:1]/6,,6,,7,,8,,5^2[8:1]/1,,8,,7,,6,,
{16}5^8[8:1]/1,,2,,3,,4,,1^6[8:1]/5,,4,,3,,2,,
{16}1h[8:1]/5,,5,,2h[8:1]/4,,4,,53,,4,7,2,5,1,8,27,,3,4,2,,6,5,
{4}7-3[8:1],,1bw5[4:6],,,,,,,,
{4}7h[2:1],,6h[2:1],,5h[2:1],,
{24}4,5,4,5,4,5,4,5,4,5,,,
{16}2h[8:1],,4,3,5,,4h[8:1],,7,5,6,,3h[8:1],,4,,2,4,3,,6h[8:1],,4,,7,5,6,,3h[8:1],,4,,
{16}2,2,4,4,3,3,7,7,5,5,6,6,1,1,8,8,
{16}1/8,,2,4,3,5,4,6,5,7,1,8,
{32}2,3,4,5,6,7,8,1,
{16}2b^5[8:1],,1,,5,,6,6,7^2[8:1],,5,,7^4[8:1],,3,,
{16}2-6[8:1],,1,,8-4[8:1]*-2[8:1],,7,,8b,,,,3/4,,2,,
{16}1/5p1[8:1],,6,,7/5,,8,,1/8,,7,8,6,,3/4,,
{16}2/5,,1^4[8:1]/6,,7h[8:3]/8,,1,,,,{32}5,6,7,8,1,2,3,4,5,,,,
{16}7b^4[8:1],,8,,4,,3,3,2^7[8:1],,4,,2^5[8:1],,6,,
{16}7-3[8:1],,8,,1-5[8:1]*-7[8:1],,2,,1b,,,,6/5,,7,,
{16}8/4q8[8:1],,3,,2/4,,1,1,8,,6,,75,,4,,
{16}3,,2,1,3/8,,7,8,6/1,,5,4,6/3,,1,,
{16}8/7,,6,6,5pp4[4:1]/4,,3,,2h[8:1],,,,2,,3,,4/5,,6,,7/8,,1/8,,2,4,,7,5,,4,5,
{4}4^1[8:1],,5^8[8:1],,
{16}27,,1,8,2,7,5,6,4,8,3,7,
{32}2,3,4,5,6,7,8,1,
{16}2h[8:1],,4,3,6h[8:1],,5,,
7h[8:1],,5,6,3h[8:1],,4,,
2h[8:1],,4,3,6h[8:1],,5,,7,5,6,5,7h[8:1],,6,,
{16}8/7,,1,,23,,5,,6h[8:1]/4,,{24}5,4,3,
{16}2,,87,,6,,4,5,3,,2h[4:1]/4,,,,
{32}5,6,7,8,1,2,3,4,5,,,,
{16}7h[8:1],,5,6,3h[8:1],,4,,
2h[8:1],,4,3,6h[8:1],,5,,
7h[8:1],,5,6,3h[8:1],,4,,2,4,3,4,2h[8:1],,3,,
{16}1/2,,8,,76,,4,,3h[8:1]/5,,6,5,
{16}7,,18,,2,5,3,8,2,6,4,7,
{32}1,2,3,4,5,6,7,8,1/5,,,,,,,,
{4}3h[2:1]/7,,4h[2:1],,5h[2:1],,6h[2:1],,
{4}7^2[4:1],,3p6[4:1],,5p4[4:3],
