&title=QQ
&artist=BEMANI Sound Team “PHQUASE & ZAQUVA”
&first=0.033
&des=Tan5qi & chara
&clock_count=4
&lv_5=14+
&inote_5=(199)
{1},
{32},
{8},,,,,,
{32}1x,2,3>5<3[8:27],4,
{8},,,,B5,B6,B7,B8,,,,B1,,,,B2,,,
{16}B3,B4,E5,,
{8}E6,
{16},
{8}E7,
{16},
{8}E8,,,,,,,,,Ch[8:3],,,,,,,
{8}5h[8:2],,4,,8,2,7,3h[8:3],,B8,B7,,1,7,2,6h[8:3],,B1,B2,,
{8}4h[8:3],,,5h[8:2],,3h[8:2],,2h[8:1],1h[8:1],8h[8:1],7h[8:1],6h[8:1],5h[8:2],,4,,
{8}7-4>2-6-1<4[8:13],,2,,3,,3h[8:1],,1h[8:1],,2,,2h[8:1],3h[8:1],,,
{8}3-6>4-1[8:5]/7,,8,,7,,6h[8:1],,
{16}3h[16:1],4,,25,,,6h[16:1],5,,74,,,
{8}8h[8:8],,1,,1,,1,,1,,7h[8:6]/2,,2,,2,,2,,6/3h[8:3],6,6,6,4h[8:3]/5,5,5,5,
{16}3,,6,3,6,,27,,1-4[8:1]/8-5[8:1],,,,18,,,,
{8}3hbx[16:4]/6hbx[16:4],,,6hbx[16:4]/4bxqq1[8:2],,,,,5hbx[16:4]/2hbx[16:4],,,3hbx[16:4]/4bx-7-5[8:1],,,,,
{16}1x,8,1,8,1,8,1,8,2x,8,2,8,2,8,2,8,3x,8,3,8,3,8,3,8,4x,8,4,8,4,8,4,8,,,4x,8,4,8,4x,1,4,1,4x,2,4,2,4x,3,4,3,4x,4,4,4,4x,5,4,5,4x,6,4-1[16:3],6-1[8:1],,,,,,,2x,8,2,8,5x,6,5,6,1x,7,1,7,3x,4,3,4,1x,8,1,8,4x,7,4,7,5pp2[8:3]/6qq1[8:3],,,,56,,
{8},,,,1x,28,37,4b-8[8:1],,6b-2[8:1],,3b-7[8:1],,5b-1[8:1],,,,
{16}1x,1,1,1,1,1,1,1,1,1,1,1,1,1,1,1,1,1,1,1,1,1,1,1,1,1,1,1,2hx[8:1]/8hx[8:1],,,1,1,1,1,,2hx[8:1]/8hx[8:1],,,1,1,1,1,,2hx[16:1]/8hx[16:1],,2hx[16:1]/8hx[16:1],,3hx[16:1]/7hx[16:1],,,5hx[16:1]/6hx[16:1],,3hx[16:1]/4hx[16:1],,,,,8bx,8bx,8bx,,,,1hbx[16:2]/7hbx[16:2],,,,4hbx[16:2]/5hbx[16:2],,,,3hbx[16:2]/6hbx[16:2],,,,1hbx[16:1]/2hbx[16:1],,1hbx[16:1]/2hbx[16:1],,,3hbx[16:1]/4hbx[16:1],,,5hbx[16:1]/6hbx[16:1],,,7hbx[16:1]/8hbx[16:1],
{8}1x-5[8:1],,1x/5xqq1[8:7],,,,,5,6,7,8,,7,,5/6,,2/7,,2>5q3<4-1[8:5],,8,,6,,7,,7-4pp6>5-8[8:5],,2,,4x,,3,,1,1,28,28,
{16}3,7,3,7,4,6,4,6,5b-1[8:1],,,,4b-8[8:1],,,,3b-7-5[8:1],,,B3,C,A5f,
{8},8b,
{32},,,,7b,6,5,,,,,,6b,5,4-1[8:1]b,,,,,,,,,,,,,,,,,,,8b,7,6,,,,,,7b,6,5-8[8:1],,,,,,,,2-7[180#8:1]/5bx,,,,,,,,,2bx,,,,,,,,,2b,3,4,,,,,,3b,4,5-8[8:1]b,,,,,,,,,,,,,,,,,,1b,2,3,,,,,,2b,3,4,
{16}7bx-2[8:1],,7bx,,7bx/4-1[8:1],,,,4b,,,
{32},,,7b,6,5,,,,,,6b,5,4-1[8:1]b,,,,,,,,,
{32},,,,,,,,,8b,7,6,,,,,,7b,6,5-8[8:1],,,,,,,,5bx,,,
{16},,,2hb[8:2],,,,4,3,4,,7hb[8:2],,,,5,6,5,,1,,2,8,2,
{32},,3x/7x,,,,
{16}4x/6x,
{16},4x/6x,,5x-8-6-1[8:14]*-2-4-1[8:14],,
{8},,,,,,,,,,,,,,,,,8,,7,,6h[8:1],,3h[8:1]/5h[8:1],,26,,17,,8xb,8xb,8xb-4[8:1],,8xb/2xb-7[8:1],,2xb/7xb-5[8:1],,7xb,,5xb-1[8:1],3xb,5xb,,3xb-1[8:1]/8xb-4[8:1],,3xb/8xb,,,,2xb-7[8:1]/6xb-3[8:1],2xb/6xb,2xb/6xb,,8xb/4xb,,1xb/5xb,2xb/6xb,3xb-8[8:1]/7xb-4[8:1],,3xb/7xb,,8xb-3[8:1]/4xb-7[8:1],,8xb/4xb,,,3b/6b,4b-1[8:1]/5b-8[8:1],,4b/5b,,2b,7b,1b/8b,1b/8b,2b/7b,2b/7b,
{16}3bx,6bx,1bx,8bx,4bx,5bx-7-3>5[16:27],3bx,6bx,,,,,,,,,,,,,,,,,1x<5[8:4],
{128},,,,,,,
{8},,,,,,,2-7-5-1-4-2[8:12],,7,,6,,5h[8:1],,7h[8:1],,,8,8h[8:1],,7h[8:1],,7q8>7[8:13]/3h[8:1],,1h[8:1],,1,,2h[8:1],,3h[8:1],,3,,2,,1,,8<4pp5pp8[8:13]/1h[8:1],,,2,3h[8:1],,2h[8:1],,4h[8:1],,,,2,,1h[8:1],,2h[8:2]/7,,7,,1h[8:1],5,2h[8:1],6,3h[8:1],7,4h[8:1],8,2h[8:1],6,3h[8:1],7,7/4,6,52,3,84,7,62,3,47,6,5/1s5s1[8:3],2,,,,,2b/8,3,64,5,62,7,17,2,65,7,34,2,18,7,18,2,1b,1,1,1,2b/8b,28,28,28,
{16}3b,7,3,7,4bx,6,4,6x,
{32}5bx,6,7,8,1,2,3,4,5bxw1[8:6],6,7,8,1,2,3,4,5b,,,,,,,,,,,,,,,,,,,,,,,,,,,,,,,,
{16}2b/1b,,7b/8b,,3b/6b,,4b,5b,1b/8b,,1b/8b,,2b/7b,,,,
{8}1b<5[8:1]*>5[8:1],,1b,,
{32}1b,28,37,46,5,,,,1b,2b/8b,37,46,5,,,,1b,2b/8b,3b/7b,46,5,,,,1b,2b/8b,3b/7b,4b/6b,5-3-7-1[8:2]b,,,,1b,2b/8b,3b/7b,4b/6b,5b,,,,
{16},,,,2b-4[8:1],,,,1b-5[8:1]/2b,,,,8b-4[8:1]/1b,,,,7b-5[8:1]/8b,,,,7b-3[8:1],,,,8b-4[8:1]/7b,,,,1b-5[8:1]/8b,,,,2b-6[8:1]/1b,,3bx,,2b/4b,,6bx/5bx,,7b/8b,,1b/2b-6[8:1],,3,,1b-5[8:1]/2b,,8,,1b/2b,,4x,,5bx-1[8:1]/6bx,,7,,5b/6b-2[8:1],,4,,5b/6b,,7,,5b/6b,
{48},
{24}8x,7,6,2x,3,4,1x,8,7,3x,4,5,7x,6,5,1x,2,3,6x,5,4,2x,3,4,1b,8,7,3b,4,5,8b,7,6,2b,3,4,7b,6,5,1b,2,3,6b,5,4,8b,1,2,3bxpp1[8:10]b/Ch[8:12],,,
{48},,
{8},,,,,,,,,,,,,1bw5[8:1],1b,1b/Cf,
{24},,,4bx/7bx,3/6,2/5,,,,2b/5b,3/6,4/7,5/8,,,5b/8b,4/7,3/6,2/5,,,
{8}2b/8b,,1b/7b,,
{12}7b/8b,,6b/5b,,3b/4b,,
{8}1bx/2bx,1bx/2bx,1bx/2bx-4[8:1],,
{16}2b-6[8:1],,6,,2b-4[8:1],,5b,5b,2b-6[8:1],,1b-7[8:1],,2b-4[8:1],,1b-5[8:1],,2b-6[8:1],,1b-7[8:1],,2b,,1b,,4x,5,4,5,3,6,3,6,2,7,2,7,1x-3[8:1],,8x-6[8:1],,1bx-5[8:1],,8bx-4[8:1],,1bx,,8bx,,
{32}1b,2,3,4,,8b,7,6,5,1b,A2,A3,A4,8b,A7,A6,A5,,
{16},
{8},3h[8:1],B7,,2h[8:1],B6,1h[8:5],B5,,A6,A7,8,,
{32}2bx/7bx,3bx/6bx,4bx/5bx,,,,,,
{32}1bx/5bx,2bx/6bx,3bx/7bx,4bx/8bx,,,,8bx/4bx,7bx/3bx,6bx/2bx,5bx/1bx,,,,1bxh[8:1]/5bxh[8:1],,,,,,,,,2bxh[16:1]/6bxh[16:1],,,,,3bxh[16:1]/7bxh[16:1],,,,,4bxh[16:1]/8bxh[16:1],,,,,,1xb/2xb,,,,,5xb,,6xb,,5xb,,,1b/4b,,,,,8b/3b,,,,7b/2b,,,,6b/1b-5[8:1],,
{16},,,8xb,,8xb,,,,4,5,3,6,2,7,1h[8:6],,,,8x,,7x,,,,,,6b,,,,1b,5b,1b,5b,2b,6b,2b,6b,3hx[8:1],,6,4,8hx[8:1],,3,5,1hx[8:1],
{32}2b,3,4,5,6,,
{16}8hx[8:1],
{32}7b,6,5,4,3,,
{48}1b,2,3,4,5,6,7,8,1b,2,3,4,5,6,7,
{32}8,1bxw5[145#8:1],
{16},,,,
{64},,,,,,
{384}E1/B8/E8/B7/E7/B6/E6/B5/E5/B4/E4/B3/E3/B2/E2/B1,Cf,,
{32},,,,,,,,,,,,,,,,,,,,,,,,,
{16}1xb,1xb,3xb,
{16}8xb,8xb,6xb,6xb,
{24},
{12}1b-5[99#32:1],3b,2b,8b,6b,7b,Ch[64:1]/1b,
E
