&title=ARROW
&artist=niki
&first=0.02
&des=∀-N
&lv_6=13
&inote_6=(131){1},
{4}5-3[8:1],2V46[4:1],,,
{4}5-3[8:1],2V48[4:1],,,
{4}5-1[8:1],4,3-8[8:1],4,
{8}7-5[8:1],5v4[8:1],4-2[8:1],,1-5[8:1],,8b,,
{8}7,6,4,2,3/5,8,6/4,1,
{8}2,3,5,7,6/4,1,3/5,8,
{8}7,4,6,2,3/5,8,6/4,1,
{8}2,5,3,7,6/4,1,3/5,8,
{8}6b/4b,3,2-4[8:1],5V31[16:3],,,,,
{8}2/8,7,6-8[8:1],1V75[16:3],,,,,
{8}6/4,3,2-4[8:1],5V38[4:1],,,,,
{16}1v3[8:1],,8V24[8:1],,,,,,,,6,5,7-4[8:1],,,,
{8}4b-6[8:1],3V51[4:1],2,,7,,2-5[8:1]/8,,
{8}5-3[8:1],6V48[4:1],7,,2,,7-4[8:1]/1,,
{8}4-6[8:1],3V51[4:1],2,,7,,2/8,,
{8}5/4,6V48[4:1],3V51[4:1],,,,,,
{8}2b/8b,3/7,5,4/6h[4:1],,5,3,4/2h[8:3],
{8}3-8[8:1],3,,,6V47[16:3],,5b,1b,
{8}2,3,5,4/6h[4:1],,5,3,4/2h[4:1],
{8}3<8[4:1],3,2,,5>1[16:3],5,6,,
{8}4b-8[8:1],,3,,3,7-5[32:3],3,7,
{8}3,4-6[32:3],3,4,3,7,3,6,
{8}5/4,3,1/2,8,1/7,2/6,3/5,4-1[8:1],
{8},1-4[8:1],,4,,3,2V46[8:1]/1V35[8:1],,
{8}2b/1b,,2V46[8:1]/1V35[8:1],,2b/1b,,7/8,1,
{8}2/5,3,7/4qq5[4:1],6pp5[4:1],5b,,,,
{8}1,2,3-8[8:1]/7,4,6-2[8:1]/3,5,3,4,
{8}5,6/4,7V51[4:1],8V24[8:1],,,,7,
{8}6b,5,4-1[8:1]/2,3,8,7,4-1[8:1]/2,3,
{8}8,7,4-1[8:1]/2,3,8-4[8:1],7-3[8:1],8b,7b,
{8}1,2,3-5[8:1],6,3^8[8:1],8-4[8:1],3,4,
{8}5,6,7-1[8:1],8,7-4[8:1],4-8[8:1],7,1,
{8}2b-4[8:1],1,1-5[8:1],8,8-6[8:1],7,5,4,
{8}3-1[8:1],4,4-8[8:1],5,5-7[8:1],6,8,1,
{8}2/8,4,5/3,8,1/7,5,6/4,7,
{8}6/8,1/7,2/8v2[8:1],3V17[4:1],1b-5[8:1],,,,
{16}6-4[16:1],,,4-7[16:1],,,1,,3-5[16:1],,,5-1[16:1],,,8,,
{48}7-4[16:1],,,,,,,,,4-8[16:1],,,,,,,,,1,,,,,,2,,,,,,8,,,,,,1,,2,,3,,7,,6,,5,,
{16}8h[8:1],,,4h[8:1],,,2h[8:1],,,6h[8:1],,,4qq7[8:3],,8>6[4:1],,
{16},,,,,,,,8,8,1,7h[16:1],,2,1,3,
{8}4b-8[8:1],,3,,3,7-5[32:3],3,7,
{8}3,4-6[32:3],3,4,3,7,3,6,
{8}5/4,3,1/2,8,1/7,2/6,3/5,4^1[8:1],
{8},8^5[8:1],,4,,3,2V48[16:3]/1V35[16:3],,
{2},1pp6[2:1],
{2}7qq4[2:1],3-1[8:1],
{2}8qq3[2:1],2pp5[2:1],
{16}6-8[8:1],,,,,,,,1b/5b,,,2b/8b,,,3b/4b,,
{8}7b/1b,6,5V31[8:1]/2,4,8,7,5V31[8:1]/2,4,
{8}8,7,5V31[8:1]/2,4,8-4[8:1],7-3[8:1],8b,7b,
{8}1,2,3-5[8:1],6,3^8[8:1],8-4[8:1],3,4,
{16}5,,6,,7/4,,6/1,,2,8,5,6,3,4,1,,
{8}1>5[8:1]/2V46[8:1],8,1b/2b,,1>5[8:1]/2V46[8:1],,1b/2b,,
{8}7/8,1,5/3qq4[4:1],4pp5[16:3],6b,,,,
{8}8,1,2-6[8:1]/5,3,4-7[8:1]/2,3,1,2,
{8}3,4/2,5V37[4:1],6V42[8:1],,,,8,
{8}1b,2,3^6[8:1]/4,1/2,7,8,3^6[8:1]/4,1/2,
{8}7,8,3^6[8:1]/4,1/2,7-3[8:1],8-4[8:1],7b,8b,
{8}5,6,7-1[8:1],2,7^4[8:1],4-8[8:1],7,8,
{8}1,2,3-5[8:1],4,3-8[8:1],8-4[8:1],3,5,
{8}6b-8[8:1],5,5-1[8:1],4,4-2[8:1],3,1,8,
{8}7-5[8:1],8,8-4[8:1],1,1-3[8:1],2,4,5,
{8}6/4,8,1/2,3,5/3,1,7/8,6,
{8}7/5,6/4,3/5v3[8:1],2V48[4:1],2bV46[8:1],,,,
{16}7/1,,6,,4/3,,2,,5,3,8,,4,6,1,,
{16}2/8,,3,,5/6,,7,,4,6,1,,5,3,8,,
{16}7/1,,4,,6/1,,2,,5,3,8,,4,6,1,,
{16}2/8,,5,,3/8,,3h[8:1],,6,5,4,3h[8:1],6,5,4,3,
{1}2b-6[1:4]/1bs5[1:4],
{1},
{1},
{1},
{1},
E
