&title=スン(マイル)フラワー~Sun(Mile)Flower
&artist=赤尾ひかる & 岡咲美保
&first=0.276
&des=Adachi Biggy
&lv_5=13
&des_5=Adachi Biggy
&inote_5=
(160){4},,,,,,,,,5/2q4[2:1],
,,,7p5[2:1],
,,,4/7h[8:3],
{8},3,,5/2,
{4}5/2,{8}4,5,6,7,{4}8w4[8:1],
,2h[4:1],3h[4:1],4h[4:1],
5h[4:1],6h[4:1],7h[4:1],8h[4:1],
1h[4:1],2>5[8:1],{8}8,7<4[8:1],,1-5[8:1],
,8,,B4/A4,B6/A6,B3/A3,B7/A7,A2/B2,
{4}8x<1[4:3],Ch[4:3],,,,7b<1b[2:1]/2b>8b[2:1],
,,,6/4h[4:1],
E1/B8,{8}3/5h[4:1],{16}B3,B4,
{4}B5,{8}6/4,3,{4}2/B5/E5,{8}6/4h[4:1],8b,
{4}8b,3/5h[4:1],E1/B1,{8}6/4h[4:1],{16}B6,B5,
{4}B4,{8}6b,5b,{2}4bw8b[8:1],
{4},6/4h[4:1],E1/B8,{8}3/5h[4:1],B4,
C,B8,{4}6b>3b[4:1],{8},,1b,1b,
{24},,,,,,{12}2,4,3,7,5,6,2,4,3,
{8}7,5/6,,4/3,,8/1,{4}1/8,
{8},2/4,{4}4h[8:1]/2h[8:1],5h[8:1]/3h[8:1],2h[8:1]/4h[8:1],
3h[8:1]/5h[8:1],2h[8:1]/4h[8:1],5h[8:1]/6h[8:1],2h[8:1]/4h[8:1],
5h[8:1]/6h[8:1],7<4[4:1],4>1[4:1],1<6[4:1],
{8}4,4,,2,{2}2-5[8:1],
{8},7,7h[8:1],4,6h[8:1],5,7h[8:1],4,
6h[8:1],5,7h[8:1],3,6h[8:1],4,7h[8:1],3,
6h[8:1],2,{4}2>5[4:1],5<8[4:1],8>3[4:1],
{8}5,5,,7,{4}7<6>5>4[8:1],Cf,
{8},2/5,{4}2h[8:1]/5h[8:1],4h[8:1]/7h[8:1],2h[8:1]/5h[8:1],
4h[8:1]/7h[8:1],2h[8:1]/6h[8:1],4h[8:1]/8h[8:1],2h[8:1]/6h[8:1],
4h[8:1]/8h[8:1],7<6-4[4:1],4-2<1[4:1],1-7<6[4:1],
{8}4,4,,2,2-5[8:1],5,{4}5,
{8}6,7,{4}8h[4:1],{8}B6,C,B2,6,
5,4,{4}3h[4:1],1h[4:1],8h[4:1],
6h[4:1],4-2[8:1],5-7[8:1],4-8[8:1],
{8}5,5h[8:5],,2,{4}2-6[8:1],2,
,3/7<3[4:1],{8},1,{4}1v6[8:1],
1,3/7<3[4:1],{8},1,{4}1-5[8:1],
1,3/7-3[8:1],{8}1,1v4[8:1],,6,
,7,{4}7qq4[2:1],A1,A2,
A3,6/2>6[4:1],{8},8,{4}8v3[8:1],
8,6/2>6[4:1],{8},8,{4}8-4[8:1],
8,6/2-6[8:1],{8}8,8v5[8:1],,3,
{4}3,2h[4:1],{2}5-7[8:1]*-2[8:1],
{8},8x/1xh[8:3],,,7,6,{4}5/1s5[4:1],
{8},8xh[8:3],,,3,2,{4}1/5-1[8:1],
{8},4xh[8:3],,8,7,6,4/5,3,
2,5h[8:3],,1,2,3,4/5,6,
7,8,{4}1xh[4:1]/B6/B7,,8xh[4:1]/B2/B3,
,2xh[8:1]/B6/E6,7xh[8:1]/B3/E4,1xh[8:1]/B6/B5,
8xh[8:1]/B3/B4,1x/Ch[2:1],2,3,
4-1[8:1]/5-8[8:1],D3/D7/B6/B3/Cf,,,C/B8/B7/B2/B3,
5b/2b-5[8:1],{8}2/7,8qq5[2:1],,5/8,
{4}4bv1[8:1],4b,{8},2,3/5,6,
7/4,3,{4}2/6-1[8:1],{8}6/3,4p3[2:1],,4/8,
{4}7<4[8:1],7,{8},6,7/1,2,
3/8,7,{4}6/2>4-7[8:3],{8}7,7<5-2[8:3],,8,
{4}8-4<6-1[4:3],8,2,3,
4,5/8,{8}7/6,7-2[8:1]/6-3[8:1],,,,,4bqq4b[8:3]*pp4b[8:3],
4b,{2}4b,
{4}B8/B7/B1,7/3-8[8:1],{8}3/6,5pp8[2:1],,8/5,
{4}1bv4[8:1],1b,{8},3,2/8,7,
6/1,2,{4}3/7-4[8:1],{8}7/2,1-5[8:1],,1/4,
{4}4<8[4:1],{8}1b,2b,{2}3b-6[8:1]*<6[8:1],
{4},2-5[8:1],2/7-4[8:1],7/1-5[8:1],
1/8-4[8:1],8/2-7[8:1],2/6-3[8:1],6/1-4[8:1]*q5[8:1],
1,6<1[8:1],{8}3,4p7[8:1],,5q2[8:1],
,4,,,A6/B6,A4/B4,A7/B7,A3/B3,
B8/A8,B2/A2,{4}Ch[4:3],{8}1,1,1,1,
1,1,{4}2b>8b[2:1]/7b<1b[2:1],{8},,,,,,2h[4:1],
5,5,3h[4:1],6,6,
{4}4-7[8:1],2/4b-1[8:1],6/4b-7[8:1],2/4b-8[8:1],
4b/6,{8}7h[4:1],4,4,6h[4:1],3,3,
{4}5-1[8:1],{8}2b-4[8:1],2,8b-6[8:1],8,1b-5[8:1],1b,
,,7h[4:1],4,4,6h[4:1],3,3,
{4}5-2[8:1],7/5b-8[8:1],3/5b-2[8:1],7/5b-1[8:1],
5b/3,{8}2h[4:1],5,5,3h[4:1],6,6,
{4}4h[1:1],1b,2b,3b,
5b<2[4:1],2<5[4:1],5<2[4:1],2<5[4:1],
5,{32}4x,3x,2x,1x,,,,,5x,6x,7x,8x,,,,,4x,3x,2x,1x,,,,,5x,
6x,7x,8x,,,,,{4}4>7[4:1],7>4[4:1],4>7[4:1],
7,{8}6b,5b,{4}4bh[4:1],B8/B2/B1,
5<2[4:1],2<5[4:1],5<2[4:1],2<5[4:1],
5,{32}4x,3x,2x,1x,,,,,5x,6x,7x,8x,,,,,4x,3x,2x,1x,,,,,5x,
6x,7x,8x,{96},,,,,,,,,,,,{12}2,4,3,7,5,6,2,4,3,
7,5,6,4xz8[2:1]/5xs1[2:1],{4},,,{16},,{64},,{96},{32}1x,
2x,3x,4x,5x,6x,7x,8x,1x,2x,3x,4x,5x,6x,7x,8x,1x,2x,3x,4x,5x,6x,7x,8x,
1x,2x,3x,4x,5x,6x,7x,8x,{4}1bx/Cf/B5/B4,,,,1xh[4:1]/8bq6q4q2q8b[4:13],
{8},,,,,3x,
,3x,{2}3xh[4:1],
{4},5xh[4:1],,7xh[4:1],
,1x,1x,1x,
1x,1/7<2[8:3],{8}2,2>7[8:3],,1,
{4}1-5-3>8[4:3],1,7,6,
5,8/4,{8}1/5,5/1>4[8:1],,1/7,
{4}8-4[8:1],{8}8b-2[8:1],3,8b<3[4:1],5,{4}8b,
B1/B2/B8,7/3-8[8:1],{8}3/6,5pp8[2:1],,8/5,
{4}1bv4[8:1],1b,{8},6,7/1,2,
3/8,7,{4}6/1>2-4-6<7b[8:3],{8}7,7v1b[16:3],,8x,
{4}8x,{8}7b,6b,5b,4b,{4}3b-6[8:1]*<6[8:1],
,7-4[8:1],7/2-5[8:1],2/8-4[8:1],
8/1-5[8:1],1/7-2[8:1],7/3-6[8:1],3/8-5[8:1]*p4[8:1],
8,3>8[8:1],{8}6,5q2[8:1],,4p7[8:1],
,5,,B4/A4,B6/A6,B3/A3,B7/A7,A2/B2,
{4}A8/B8,Ch[8:7],{8}8,8,8,8,
8,8,{4}2b>8b[2:1]/7b<1b[2:1],,,,6/4h[4:1],
E1/B8,{8}3/5h[4:1],{16}B3,B4,
{4}B5,{8}6/4,3,{4}2/B5/E5,{8}6/4h[4:1],8b,
{4}8b,3/5h[4:1],E1/B1,{8}6/4h[4:1],{16}B6,B5,
{4}B4,{8}6b,5b,{2}4bw8b[8:1],
{4},3/5h[4:1],E1/B1,{8}6/4h[4:1],B5,
C,B1,{4}3b<6b[4:1],{8},,8b,8b,
,,8/B3/C/B4,8,8,1/C/B6/B5,1,1,
7/B3/C/B2,7,7,2/C/B7/B6,2,2,{4}6/C/B1/B2,
{8}3/C/B8/B7,,,3,{4}5/2-5[8:1],{8}2/6,7-4[8:1],
,7/3,,3,{4}5/2,4/7,
{8}1/8,2b>8b[8:3]/7b<1b[8:3],,,,,,,1b/8b,
8b/1b,
E
