&title=ロストアンブレラ(lost umbrella)
&artist=稲葉曇,歌愛ユキ
&first=-0.12
&des=STEXxx
&lv_5=13+
&inote_5=(137){4},,{2}5/2-6[8:1],
4/7-3[8:1],{4}5/2-4[8:1],8,
7-5[8:1],1,3/7-3[8:1],1,
5/2-6[8:1],8,3/8-2[8:1],8-6[8:1],
{2}8w4[8:1],{8}5/4,2,{16}6,5,{8}7,
{16}8/1,,,3x/4x,,4x/5x,,5,{8}6x/4x,2,{16}7,8,{8}6,
{16}5/4,,,1/2,,1/8,,,2,1,{8}3,4/8,{16}7x,6x,
{8}5x/1x,8/4,,,6/8-5[16:1],1,8/2,{16}1,8,
2,,,8,,,{8}5/1,8v5[16:1],1,8/2,{16}4,3,
4h[8:1]/2V47[8:1],,,5h[8:1],,,{8}6,6/8-5[16:1],1,8/2,{16}1,8,
2,,,8,,,{8}5/1,8v5[16:1],1,8/2,{16}3,2,
{2}1<7v5[8:1]*>3v5[8:1],{8}4/5s1[16:1],3/6,5/4,{16}4,5,
3-7[16:1],,,6,,,{8}5/1,3/6v1[16:1],2/5,6/3,{16}4,3,
7h[8:1]/2V48[8:1],,,6h[8:1],,,{8}5,4/5s1[16:1],3/6,5/4,{16}4,5,
3-7[16:1],,,6,,,{8}5/1,3/6v1[16:1],2/5,6/3,{16}4,3,
2/8h[8:3],,,1,,,{8}4,7/5s1[16:1],4/6,5/3,{16}4,5,
3-7[16:1],,,6,,,{8}5/1,3/6v1[16:1],4/5,6/3,{16}4,3,
7h[8:1]/2V48[8:1],,,6h[8:1],,,{8}5,7/5s1[16:1],4/6,5/3,{16}4,5,
3-7[16:1],,,6,,,{8}5/1,3/6v1[16:1],4/5,6/3,{16}4,3,
2/8h[8:3],,,6,,,{8}3,6/5,6/5,4,4,
{16}4,6,4,6,{8}4,4,4/6,6/4,4,4,
{16}4,7,4,7,{4}4h[8:1],{8}7/4,7/4,7,7,
{16}7,3,7,3,{8}7,7,7/3,7/3,7,7,
{16}7,2,7,2,{4}7h[8:1],{8}8-6[16:1]/2-4[16:1],2/8,,,7-5[16:1]/1-3[16:1],
1/7,,,2/8-6[16:1],8/2-4[16:1],,,7/1-3[16:1],
1/7-5[16:1],,,3/4,1,5/4,2,
6/5,3,7/6,4,{4}8/7,{8}5/2,4/3,
5/4,6/5,8/7,2/1,{4}5/3>6[2:1],5,
6q2[2:1],5,2<6[2:1],4,
6q2[2:1],5,2<6[2:1],4,
6<3[2:1],{8}5,6,{4}7,{8}8,7/1,
2/4,3/1,4/2,5/3,5/3-5[16:1],3,7-1[16:1],7,
3-5[16:1],3,7-1[16:1],7,3-6[16:1],3,7-2[16:1],7,
3-6[16:1],3,7>2[16:1],7,{2}5h[8:13],
{1},{4},{32}5/1,
4/8,3/7,2/6,{8}1/5,6/2v5[8:1],3,2/6v1[8:1],7,
{16}4,3,2,7,{8}3-8[16:1],{16}7-4[16:1],6,{8}5/3-6[16:1],7-2[16:1],3>8[8:1],7<4[8:1],
,,8-2[16:1],{16}2,3,{8}4,{16}6,7,8-5[8:1],1,{8}2,
8,{16}3,2,{8}1,{16}6,5,{8}4>1[8:1],3,4/8<5[8:1],7,
8,{16}3-6[16:1],4,{8}5,{16}7,8,{4}1w5[16:1],1b,
{16}4,3,2,7,{8}3-8[16:1],{16}7-4[16:1],6,{8}5/3-6[16:1],7-2[16:1],3v8[16:1],7v4[16:1],
3>7[8:1],7<3[8:1],,,{2}8-4[8:1],
{8}8w4[0.8759##0.1095],1h[4:1]/5h[4:1],,,{4}8,2h[4:1]/6h[4:1],
{16},,,8,,,{8}6/2,8v5[16:1],4,8/2,{16}3,2,
4h[8:1]/1V37[8:1],,,5h[8:1],,,{8}6,6/8v5[16:1],1,8/2,{16}1,8,
2,,,8,,,{8}5/1,8v5[16:1],4,8/2,{16}3,2,
{2}1v3[8:1]/5v7[8:1],{8}6/4v7[16:1],3/5,4/2,{16}3,4,
2-6[16:1],,,7,,,{8}8/4,3/6v1[16:1],2/5,6/3,{16}4,3,
7h[8:1]/2V48[8:1],,,6h[8:1],,,{8}5,6/4v7[16:1],3/5,4/2,{16}3,4,
2-6[16:1],,,7,,,{8}8/4,3/6v1[16:1],2/5,6/3,{16}4,3,
2/8h[8:3],,,1,,,{8}4,6/5,6/5,5,5,
{16}5,7,5,7,{8}5,5,7/5,7/5,7,7,
{16}7,5,6,4,{4}5h[4:1],{8}3,4/3,4,4,
{16}4,2,4,2,{8}4,4,2/4,2/4,2,2,
{16}2,5,3,6,{8}4h[8:1],7,5/4,7/8,6h[16:1],6h[16:1],
4/5,2/1,3h[16:1],3h[16:1],5/4,7/8,6h[16:1],3h[16:1],
4/5,2/1,3h[16:1],6h[16:1],5/4h[8:1],7,7/8h[8:1],5,
2/1h[8:1],4,7/8h[8:1],5,2/1h[8:1],3,4/8,5/1,
6/2,7/3,{4}4>1[8:1]/8<5[8:1],{2}4/8pp5[1:3],
{1},,,{16}5/4,
{32},,,,4,5,{4}4,{8}7-5[16:1],7,1-3[16:1],1,
7-5[16:1],7,1-3[16:1],1,8-6[16:1],8,2-4[16:1],2,
8<5[16:1],8,2V46[16:1],2,8p4[8:1],8,2q6[8:1],2,
7p3[8:1],7,1q5[8:1],1,8p4[8:1],8,2,1,
{12}1x,2x,3x,4x,{24},,,,{8}3-8[16:1],2,4-7[16:1],5,
{16}1h[8:1],,,1,,,1,1,{8}8/7,6/5,4/3,2b/1b,
,,,,{2}2/5xh[4:1],
7/4xh[4:1],2/5xh[4:1],
{4}7,7,7/4xh[4:1],8,
2/5xh[4:1],1,8/3xh[4:1],7,
{2}8w4[8:1],{8}6/2,2h[4:1],5,5,
3h[16:3],6,6,4h[4:1],7,7,5h[16:3],8,
{16}8,5,,4/8h[8:1],,,7,6,{2}4x/5x,
{8},,6/2,6/2,6/2v5[8:1],3/7,2/6v1[8:1],7,
{16}4,3,2,7,{8}3-8[16:1],{16}7-4[16:1],6,{8}5/3-6[16:1],7-2[16:1],3>8[8:1],7<4[8:1],
,,8-2[16:1],{16}2,3,{8}4,{16}6,7,8-5[8:1],1,{8}2,
8,{16}3,2,{8}1,{16}6,5,{8}8/4>1[8:1],3,4/8<5[8:1],7,
8,{16}3-6[16:1],4,{8}5,{16}7,8,{4}1w5[16:1],1b,
{16}4,3,2,7,{8}3-8[16:1],{16}7-4[16:1],6,{8}5/3-6[16:1],7-2[16:1],3v8[16:1],7v4[16:1],
3>7[8:1],7<3[8:1],,,{2}8-4[8:1],
{8}8p5[0.8759##0.8759]*pp4[0.8759##0.8759],1h[4:1]/5h[4:1],,,{2}8,
{8},,,,5h[8:1],3,4h[8:1],5,
7/2,{16}3,4,,,{8}4/7,6h[8:1],4,5h[8:1],6,
8/3,{16}7,6,,,{8}5/2,4h[8:1],2,3h[8:1],4,
6/1,{16}2,3,,,{8}3/6,5/4,3,4/5,6,
7/2,{16}3,4,,,{8}4/7,6/5,4,5/6,7,
8/3,{16}7,6,,,{8}5/2,4/3,2,3/4,5,
6/1,{16}2,3,,,{8}3/6,5/4,3,5/2qq5[8:3],6,
{2}7,{8}7/8,8/7,{16}2,4,3,5,
4,6,5,7,4,6,3,5,{8}1/2,1/2,{16}4,7,4,6,
3,5,2,4,3,5,4,6,{8}7/8,7/8,{16}2,5,3,3,
7,5,6,6,2,5,3,3,{8}2/1,2/1,{16}6,5,8,8,
3,4,2,2,6,5,8,8,{8}2,2,{16}2,4,3,5,
4,6,5,7,4,6,3,5,{8}2,2,{16}6,3,7,4,
{8}6h[8:1],2h[8:1],{16}5-1[16:1],2,4-2[16:1],3,{8}5,4,{16}7,5,6,4,
5,3,4,2,5,3,6,4,{8}7,7,{16}3,6,2,5,
{8}3h[8:1],7h[8:1],{16}8-4[16:1],5,7-5[16:1],6,{8}8,7,{16}2-4[16:1],7,1-5[16:1],8,
{8}2,1,{16}1-4[16:1],6,8-5[16:1],7,{8}1,8,{16}8-4[16:1],5,7-5[16:1],6,
{8}8,7,1,7/3,5/2,8/7,7/4,1/2,
8/6,3/4,4/2,7/8,1/7h[16:1],6/2h[16:1],1/5h[16:1],7/3h[16:1],
{32}1/5h[16:1],2,{16}3,{32}7,6,{16}5,{4}1v4[16:1]*-6[16:1],{2}1,
E
