&title=Stellar:Dream
&artist=EmoCosine + Synthion
&first=0.06
&des=DZ
&lv_5=14+
&inote_5=(250){1},
{1}
E1,E2,E3,E4`C,E5,E6,E7,
{2}
E8`C,1b,
{8}
3,4,5,6h[8:3],,,3,,
{8}
3,4,5,6h[8:3],,,3,,
{8}
6,5,4,3h[8:3],,,6>3[4:3],,
{4}
6,3,2,2,
{8}
1,1,5,5,3,3,7,7,
{16}
1,2,3,4,8,7,6,5,
{16}
2,3,4,5,6,7,8,1,
{8}
26,26,,37,37,,45,45,
{8}
,18,2-5[8:1]/7-4[8:1],,2b/7b/Cf,,,,
{24}
2b/E8f,3,4,
{8}
,,,
{24}
8b/E3f,7,6,
{8},,,
{8}
2h[4:1]/5h[4:1],,,3h[4:1]/6h[4:1],,,4<2[16:7]/7,,
{4}
6h,,
{16}
5,6,7,8,1,2,3,4,
{16}
51,2,3,4,5,6,7,8,Cf/1x-5[8:1],,,,,,,,
{24}
8b/E4f,7,6,
{8}
,,,
{24}
2b/E7f,3,4,
{8}
,,,
{8}
4h[4:1]/6h[4:1],,,3h[4:1]/7h[4:1],,,2/8>6[4:2],,
{8}
3h,,,,
{16}
2,1,8,7,6,5,4,3,
{16}
27,6,5,4,3,2,1,8,
{4}
3q5[16:5]/7h[4:1],,
{8}
6h[8:1],,6h[8:1],4,6h[8:1],,6h[8:1]/3,,
{8}
6h[8:1],2,6h[8:1],,6h[8:1]/1>3[8:1],,6h[8:1],,
{8}
4h[8:1],,4h[8:1],6,4h[8:1],,4h[8:1]/7,,
{8}
4h[8:1],8,4h[8:1],,4h[8:1]/1<6[8:1],,4h[8:1],,
{8}
3x/5x,3,3,4x/6x,6,6,2x/7x,2,
{16}
8x,1,8,1,8,1,8,1,7x,2,7,2,7,2,7,2,
{16}
7x,6,5,4,8,7,6,5,1,2,3,4,8,1,2,3,
{16}
7,6,5,4,3,2,1,8,
{4}
7b/Cf,,
{8}
2-5[16:3],,6,6,7h[4:1],4,4,6,
{8}
3h[8:3],,5,5,1/6-8[8:1],,2,,
{8}
3h[4:1],,1,1-7[8:1],,2,2,2,
{8}
6h[8:1],,3,5,4-2[8:1],,C,,
{8}
7-4[16:3],,3,3,2h[4:1],5,5,3,
{8}
6h[8:3],,4,4,8/3-1[8:1],,7,,
{8}
7h[4:1]/8h[4:1],,,1h[4:1]/2h[4:1],,,3,3,
{8}
5xpp8[4:2],,4,4,2xb,,,,
{8}
1h[4:1]/7,,8,8,E3,5,5,4,
{8}
E7,3,3,3,C,1,8,1h[4:1],
{8}
7,7,2q5[8:5],2,,6,6,5<3[8:4],
{8}
,,,,
{16}
A4/D5,A5,D6,A6,D7,A7,D8,A8,
{8}
2h[4:1],,5,54,,36,36,2h[8:1],
{8}
6,7h[8:1],4,2h[8:1],5,7h[8:1],
{16}1,8,1,8,
{16}
2,3,4,5,8,7,6,5,1,2,3,4,7,6,5,4,
{16}
3,5,3,5,4b-8[8:1],6,4,6,4b,,,,Cf,,,,
{8}
2-5b[8:1],8-4[8:1],2,8,
{16}
3h[4:1],,,,
{24}
8,7,6,5,,,
{8}
1-5b[8:1],7-4[8:1],1,7,
{16}
3h[4:1],,,,
{24}
1,8,7,6,5,,
{8}
2-5b[8:1],2,7,7,8,8b<5[8:1],,8>3b[8:1],
{8}
,8-4[8:1],,8,3>6[4:1],3,
{16}
6h[16:1],,,,
{8}
5-1b[8:1],5,2-5[8:1],2,7h[4:1],,
{24}
8,1,2,3,,,
{8}
6-1b[8:1],6,2-6[8:1],2,7h[4:1],,
{24}
8,1,2,3,4,,
{8}
6,6-3b[8:1],2,2-7[8:1]/6xb,,2xb,,1-4[8:1]/5-8[8:1],
{8}
,1x/5x,,E7f/D7/E3f/D3,,
{16}
1,8,1,8,1,,
{8}
2b,2<4[16:5],7,7h[4:1],,,{24}
1,8,7,6,5,4,
{8}
1,1<3[16:5],6,6h[4:1],,,{24}
8,7,6,5,4,3,
{8}
1,1,16,2p8[8:3]/7,,8,8<1[8:4],7h[8:3],
{8}
,,,,
{16}
E6/D6,D5,D4,D3,D2,D1,D8,D7,
{8}
2/D6,2,24,2,28,2,
{16}
2,3,4,5,
{8}
6,6,68,6,64,6,71,
{24}1,2,3,
{8}
5/4,5<8[8:1],2,2q6[8:1],,1xb<3b[8:4],,8h[8:2],
{8},,,E6/B6/B5,E2/B2/B1,C,,,
{2}
6h[4:16],E3`B3,
{2}
,A4`E4,
{2}
,B6`B5,
{2}
,B5`E5,
{2}
3h[4:16],E7`B7,
{2}
,A8`E8,
{2}
,B2`B1,
{2}
,B1`E1,
{4}
6h[4:2],,8<5[4:3],1,
{4}
,C,3qq4[4:4],4,
{4}
5h[4:1],,6,6<1[4:3],
{4}
5,4,3h[4:1],,
{8}
2bh[4:1]/C,,,6bh[4:1]/C,,,8bh[4:2]/4bh[4:2],,
{16}
,,,,,,,,3,7,3,7,3,7,3,7,
{16}
2,8,2,8,2,8,2,8,1,1,1,1,1,1,1,1,
{4}
1bh[4:2],
{8}
,6,6-2[8:1],,,5b>8[8:3],
{4}
,
{24}
8xbq5b[4:1],7x,6x,,,,5xb,6x,7x,,,,
{8}
8<4b[4:1],8,
{4}
4>8[4:1],8,
{16}
4>5[8:3],37,26,51,48,,,,
{8}
2,2,4,3qq4[8:3],,5,5,
{16}
5,6,
{16}
7,,5,6,5,6,5,,4b/7b,,4b/7b,,,,8b<3[8:3],,
{4}
,
{24}
3xbq8b[4:1],2x,1x,,,,8xb,1x,2x,,,,
{8}
3<7b[4:1],3,
{4}
7V13[4:1],3,5V71b[4:1],1,
{16}
2xbh[8:1],,4,3,5,,7xbh[8:1],,5,6,4,,3xbh[8:1]/6xbh[8:1],,,,
{16}
2b/7b,,1,8,1,,1-5b[8:1],,,,Cf,,,,4/6-8V24[8:3],,
{4}
,4V68b[4:1],8>4[4:1],4<8b[4:1],
{16}
8,1,2,3,
{4}
4-8[8:1],4/7-3[8:1],7/1h[8:1],
{8}
2,2,24,3b/5,,
{8}
1b,
{24}
8,7,6,5-1[8:1]/2b,3,4,
{8}
,,,,27,27,,4b/5b,
{8}
,3h[16:1]/7,3h[16:1]/7,2h[16:1],8h[16:1]/1,8h[16:1],7h[16:1]/1,7h[16:1],
{8}
2h[16:1]/6h[16:1],2h[16:1]/6h[16:1],3h[16:1]/5h[16:1],4h[16:1]/6h[16:1],3h[16:1]/7h[16:1],3h[16:1]/7h[16:1],2h[16:1]/8h[16:1],1h[16:1]/7h[16:1],
{8}
6b-2[8:1],6,,4b-8[8:1],4,,7b-3[8:1],7,
{8}
,1b,1w5[8:1],,Cf/B5/B7/B3/B1,,,
{16}
4,3,
{8}
2-4[8:1],,8-6[8:1],,1-3[8:1],,7-5[8:1],7,
{4}
4>8[4:1],8<5[4:1],5>2[4:1],2,
{4}
8h[8:1],7h[8:1]/1,6h[8:1]/8,5h[8:1]/7,
{4}
6v5b[4:1]/4h[8:1],3,
{8}
2v1[4:1]*v1[4:1],2,,8<5[16:3],
{8}
,8,1-3[8:1],,8-6[8:1],,2-4[8:1],2,
{4}
5<1[4:1],1>4[4:1],4<7[4:1],7,
{4}
1h[8:1],2h[8:1]/8,3h[8:1]/1,4h[8:1]/2,
{4}
3v4b[4:1]/5h[8:1],
{8}
7v8[4:1]*v8[4:1],7,,
5,,4V28[4:1],
{8}
,,6-4[8:1],,6/2-5[8:1],,2/7-3[8:1],,
{8}
73,,2-6[8:1],,26,,7,7,
{8}
1h[8:1],4,3,2b/5b,,78,78,6b/1b,
{8}
,2>5[8:1],21,,
{24}
8w4b[8:1],7,6,,,,
{4}
,
{24}
1xh[4:1]/7x,6,5,
{8}
4,,
{24}
8xh[4:1]/2x,3,4,
{8}
5,,6bqq7[16:12]/2bqq3[16:12],,
{1}
,
{64}
3b,4,,,,,,,3b,4,,,,,,,
{8}
,
{64}
6b,5,,,,,,,6b,5,,,,,,,
{8}
,
{64}3b,4x,5x,6x,,,,,3b,4x,5x,6x,,,,,
{8}
,
{64}6b,5x,4x,3x,,,,,6b,5x-1[8:1],4x-8b[8:1],3x,,,,,
{8}
,E5f/B5/B4,,,,
{8}
2h[4:1],,5,5,2,4,3,5,
{8}
4,6,6,5,7,3,3,5,
{8}
4,6,4,5h[4:1],,1,1,5,
{8}
3,5,4,6,2-4[8:1],,5,,
{8}
7h[4:1],,4,4,7,5,6,4,
{8}
5,3,3,5,2,6,6,4,
{8}
8bqq8[4:1],,,2bpp2[4:1],,,1,1,
{8}
8,8h[16:1],3h[16:1]/7h[16:1],3h[16:1]/7h[16:1],
{32}
2,1,8,7,6,5,4,3,{4}2b/8b,
{8}
1-5[8:1],1,7-4[8:1],7,3-8[8:1],3,6-1[8:1],6,
{8}
2,2,38,38,47,47,65,65,
{8}
4-8[8:1],4,7,
{24}
7,6,5,1-5[8:1],2,3,
{8}
8-6[8:1],1,8,
{8}
3h[8:1],
{16}
5h[48:1],4h[48:1],5h[48:1],,1h[48:1],8h[48:1],1h[48:1],8h[48:1],1h[48:1],8h[48:1],2b/7b,,,,
{8}
3bh[4:1]/E8f/B8/B7,,,6bh[4:1]/E2f/B1/B2,,,1bpp5[4:10]/8bqq4[4:10],,
{1}
,
{1}
,
{1}
,
{8}
24,24,3,75,75,6,18,18,
{8}
2,34,34,5,6x,6<1[8:1],1,2x,
{8}
2>5[8:1],5,7x-5[8:1],8,1,2x-4[8:1],1,8,
{8}
7x>2[8:1],6,5,4x<7[8:1],3,2,1x,1xb/8xb,
{16}
2,,2,,5,4,7,,7,,4,5,2,,2,,
{16}
4,3,8,,8,,5,6,1,,1,,8,3,6,,
{16}
4,5,4,5,3,6,3,6,2,7,2,7,1,8,1,8,
{24}
1xb,2,3,4,5,6,8xb,1,2,3,4,5,8xb,7,6,5,4,3,1xb,8,7,6,5,4,
{4}
,,
{32}
8bv7-1-6-8b[4:21]/Cf,,,,,,,,
{4},
{1}
,
{16}
,,2,3,4v3-5-2-4[4:18],
