&title=ドレミファロンド
&artist=40mP
&first=2.02
&des=Ragna
&wholebpm=125
&demo_seek=57.5
&demo_len=16
&des_5=Ragna
&lv_5=13
&inote_5=(125){24}
1,,,,1,,6,5,6,5,6,5,8,,,,8,,3,4,3,4,3,4,
{12}1,,1,6,5,7,4-1[12:1]*-8[12:1],,,4b,,,
2,4,3,5,4,6,5-8[12:1],,,5b,,,
7,5,6,4,5,3,4-1[12:1],,,4b,,,
2,4,2,6,3,6,4-8[12:1],,,4b,,7,
6,,6,5,,5,4-1[12:1]*-7[12:1],,,4b,,,
2,4,3,7,5,6,4^1[12:1],,,4b,,,
7,5,6,2,4,3,5^8[12:1],,,5b,,,
2,5,4,7,3,6,4-8[12:1],,,4b,,7,
6,,6,5,,5,4^1[12:1]*^7[12:1],,,4b,,,
2,,2,4,3,5,1,,1,5,4,6,
8,,8,6,,6,4-7[12:1]*-8[12:1],,,4b,,,
2,,2,3,,3,4,,4,5,,5,
6,,6,7,,7,8-2[12:1]*-5[12:1],,,8b,,,
7,,7,6,,6,5,,5,4,,4,
3,,3,2,,2,1^7[12:1]*^4[12:1],,,1b,,,
2,,2,4,,4,6,,6,8,,8,
2,,2,4,,4,6<3[6:1],,,,,,
7,,7,4,,4,5,,5,2,,2,
8,,8,1,7,3,5-2[12:1]*-1[12:1],,,5b,,,
7,,7,6,,6,5>7[24:5],,,,,,
3,,3,4,,4,5<3[24:5],,,,,,
7,,7,5,,5,3,,3,1,,1,
8^5[12:1]*^3[12:1],,,8b,,,4^1[12:1]*^7[12:1],,,4b,,,
2,,2,3,,3,4<2[24:5],,,,,,
6,,6,5,,5,4>6[24:5],,,,,,
2,,2,4,,4,6,,6,8,,8,
2,,2,4,3,8,1,,1,5,4,7,
8,,8,6,5,8,1^4[12:1]*-6[12:1],,,1b,,,
5,3,4,2,6,5,7-5[12:1]*-3[12:1],,,7b,,,
4,6,5,7,3,4,2-4[12:1]*-6[12:1],,,2b,,,
5,2,4,1,7,5,8-4[12:1],,,8b,,3,
2,,2,1,,1,8-3[12:1]*-5[12:1],,,8b,,,
2,5,3,8,5,7,2-6[12:1]*^4[12:1],,,2b,,,
7,4,6,1,4,3,7-3[12:1]*^5[12:1],,,7b,,,
2,5,4,8,5,6,1-5[12:1],,,1b,,8,
7,,7,6,,6,5^2[12:1]*^8[12:1],,,5b,,,
1,,1,{24}6,5,6,5,6,5,8,,,,8,,3,4,3,4,3,4,
1,,,,1,,5,,2,,6,,4,,,,4,,7,8,7,8,7,8,
5,,,,5,,2,1,2,1,2,1,4,,,,4,,7,8,7,8,7,8,
{12}5,,5,1,6,2,8,,8,4b,,,
6-1[12:1],,2-5[12:1],6,,2,7-4[12:1],,3-8[12:1],7,,3,
5-8[12:1],,1-5[12:1],5,,1,7-4[12:1],,3-7[12:1],7,,3,
5-8[12:1],,1-3[12:1],5,,1,7-5[12:1],,4-1[12:1],7,,4,
6-8[12:1],,2-6[12:1],6,,2,7-3[12:1],,2-8[12:1],7,,2,
5-8[12:1],,3-8[12:1],5,,3,7-4[12:1],,1-4[12:1],7,,1,
6-1[12:1],,5-2[12:1],6,,5,7-4[12:1],,8-3[12:1],7,,8,
6-8[12:1],,5-1[12:1],6,,5,7-4[12:1],,2-5[12:1],7,,2,
8-4[12:1],,1-5[12:1],8,,1,8-3[12:1],,1-6[12:1],8,,1,
5,,5,4,,4,5,,5,4,,4,
5,,5,4,,4,5,,5,4,,4,
6,,6,3,,3,5,,5,4,,4,
6,,6,5,,5,4^1[12:1]*-7[12:1],,,4b,,,
8,,8,{24}4,5,4,5,4,5,{12}3,,3,7,,7,
1,,1,{24}5,4,5,4,5,4,{12}6,,6,2,,2,
8,,8,{24}4,5,4,5,4,5,{12}3,,3,7,,7,
1,,1,3,,3,5,,5,7,,7,
1,,1,5,3,7,5>1[12:1]*<1[12:1],,,5b,,,
2,4,3,8-3[12:1],5,6,8-4[12:1]*-5[12:1],,,8b,,,
7,5,6,1-6[12:1],4,3,1-5[12:1]*-4[12:1],,,1b,,,
2,6,4,8-3[12:1],5,6,8-5[12:1],,,8b,,4,
3,,3,2,,2,1-4[12:1]*-6[12:1],,,1b,,,
7,4,5,1^6[12:1],4,3,1-5[12:1]*^4[12:1],,,1b,,,
2,5,4,8^3[12:1],5,6,8-4[12:1]*^5[12:1],,,8b,,,
7,3,5,1^6[12:1],4,2,1^4[12:1],,,1b,,5,
6,,6,7,,7,8^3[12:1],,,8b,,7,
6,,6,5,,5,4^1[12:1],,,4b,,5,
6b^3[12:1],,,,,,2b>7[6:1],,,,,,
8,,8,1,7,3,5^8[12:1]*-8[12:1],,,5b,,,
{1},E
