&title=Nova (feat. Eye)
&artist=lapix,Eye
&first=3.08
&des=梦幻梦鱼
&lv_5=14
&des_5=梦幻梦鱼
&inote_5=
(153){4}8h[4:1]/1h[4:1],{24},,,4x/5x,,7x/6x,,,,1/8,,3/2,,,,5/4,,5h[6:1]/4h[6:1],
,,,,,,{8}Cf,{24}8,7,8,{12}7,{24}2,1,{12}2,{24}2x,1x,2x,,,5,
4,5,4,Cf,,,,,,8,7,6,{12}5,{24}3,2,1,8,7,6,{12}5,8h[8:1],
{24},,,{8}5/3,7/1,6/4,8/2,6/3,8/1,5h[16:3]/4h[16:3],
{24},,,,,,1,2,3,4,,,2,1,8,7,6,5,4,3,2,1,8,7,
6,5,,1x,2,3,4,5,6,7,2,3,4,5,6,7,8/1,2,3,4,5,6,{12}7h[24:5],
{48},,,,,C,,,,,,,,,,,,,,,,,,,{8}5h[16:1]/4h[16:1],7h[16:1]/8h[16:1],{16},,2,1,
,2h[16:1],,8,1,8,{8}1b,8b,{16}7,8,,,{8}6/5,
3/2,1/8,{24},,,,,,{6}6h[12:1]/5h[12:1],1h[12:1]/8h[12:1],{48},,{16}2,2,
,8,7,6,1,1,{8}7/8,2/3,{16}5/6,6/5,,1h[8:1],,7h[8:1],
,,{8}2/3,{4}5/6,{8}2h[16:1],2h[16:1],{16},,8,8,
,1h[8:1],,,7/8,7/8,{8}1/2,1/2,6/5,{16}6/5,3,4,1,
{8}2,7/6,,4/5,4/3,3/2,,1/8,
8/7,7/6,,1/2,6/5,{16}8/7,8/7,,8h[16:1]/7h[16:1],{48},,,,,,{24}1,
2,3,4,5,6,7,8,{6}1,{24}4/3h[8:1],,,1h[8:1],,,,,,{8}8h[16:1]/7h[16:1],
{16},4,{8}6,{4}5h[8:1],{8}8/7h[8:1],5h[8:1],{16},,2,8,
,1h[8:1],,,{4}7h[8:1],{16}6h[8:1]/5h[8:1],,,4h[8:1]/3h[8:1],,,{8}2h[8:1]/1h[8:1],
{16},8h[8:1]/7h[8:1],,,2/1,1/2,{8}3h[8:1],{16}4,5,,8,{8}7,1/2,
6/5,7/8,4/3,1h[8:1]/2-5[8:1],,,,8h[8:1]/7-4[8:1],
{24},,,,,,,,{12}1>4[6:1]/8<5[6:1],1/8,{24},,,,,,,,,{8}7/8,
4/3,2/1,6/5,4h[8:1]/3-8[8:1],,,,5h[8:1]/6-1[8:1],
,,,4b/3b,7b/8b,1b/2b,6b/5b,Cf,
{16},,,,,,8,7,{8}8,{16}1,2,{8}1,{16}8,1,
{8}8,{16}8,1,{8}8,8h[8:1],{16},1h[8:1],,,8,7,{8}8b,
1b/2b,5b/4b,,6h[8:1]/8h[8:1],,7h[8:1]/1h[8:1],,2h[8:1]/4h[8:1],
{24},,{12}2/4,{24},,{8}1/8,6/5,2/8,4/5,1/7,8h[4:1]/2h[4:1],
{16},,,,,,6,5,{8}6h[16:1],3h[16:1],{16}4,3,{8}5xh[16:1]/4xh[16:1],
{16},,6,5,{8}6,3h[8:1],{16},1h[8:1],,,{8}7h[8:1],5b,
2b,8b/7b,4/5,2h[16:1],1h[16:1],2,7/8,7/8,
,4/5,5/4,{16}3,4,{8}3,{16}6,5,{8}6,{16}8,7,
{8}8,1b/2b,,Cf,{16},,,,8h[16:3],,,7h[16:3],
,,{8}6h[8:1],5,8h[8:1],{16}1h[8:1],,,8,,7,,2,
1,2h[8:1],,,{8}1,3,{16}4,2h[8:1],,,{8}4,5h[8:1],
,,8,7h[8:1],{6}6h[6:1],{12}8b,1b,{24},,,6,
5,6,,,,,{8}4/3,{24}2,,1,,2h[8:1],,,,,{8}8h[8:1],1h[4:1],
,,6/5,8,{12}7,1h[12:1],,3h[12:1],,5,
2,1,{24},,{8}8/7,5/4,{12}1/2,1/2,{24},8,,7,,7,,8,
,,,{8}1/2,8/3,8h[8:1]/1h[8:1],{16},,6,5,6,4,5,4,
{8}5,2/3,{16},,8/7,6/1,,1/2,{8}8/3,{16}5/4,5/4,,1/8,
{48},,{24}2bxh[48:7]/7bxh[48:7],,,,,,,,,{12}1h[16:1]/2h[16:1],{48},,,,3,,,2,,,{24}3,{48},4,,,3,,,2,,,{24}3,
{48},4,,,{12}3h[6:1],,,,7,8,2,1,4h[16:1]/3h[16:3],{48},,,,,{16}C,
,,{8}5xh[24:7],{24},,,,{12}8h[24:5],{24},,,{8}1,7,{16}2,1,
2,1h[16:3],{48},,,,,,,,,,,,,,{12}4,3,5,4,6/5,{24},{8}8h[4:1]/7h[4:1],
{16},,,,,,1,2,1,2,1,2,1h[8:1],,,2,
3,4,{8}5,8h[8:1],1h[8:1],{24},,{12}8-5-3[6:1],{3}2h[12:1],
{24},,1,8,7,6,5,4,,{8}2/3,8/1,7/6,5/4,7/8,
7h[4:1]/8h[4:1],{16},,,,1,2,1,3,4,3,6,5,6,8,
7,8,,Cf,,,{8}8h[16:1]/1h[16:1],{24},,,,1,2,3,4,,1,8,7,
6,5,4,3,2,1,,,,,,,,,,8,7,6,{12}5,{24}1,2,3,4,
5,6,7,8,1,2,3,4,,,8,7,6,5,,2,3,4,{12}5,{24}8,7,6,5,
4,3,,7,6,5,{12}4,{24}1,2,3,4,,8,7,6,{12}5,{24}1,2,3,4,5,6,
7,8,1x,2x/8x,3x/7x,4x/6x,,,,{8}7h[8:1]/1h[8:1],,1h[8:1],,6xh[8:1],
{4}1h[8:1],{8}5xh[8:1],1h[8:1],,4xh[8:1],{4}1h[8:1],
{8}5xh[8:1],1bh[8:1],,6bxh[8:1]/4bxh[8:1],,8-6-4-6-2[16:11],{16},,,,,,,,,2-8-6-8-4[16:11],
,,,,,,,,,,,,,,,,,,{8}6h[16:1]/5h[16:1],
7h[16:1]/8h[16:1],{16},,2,1,
,2h[16:1],,8,1,8,{8}1b,8b,{16}7,8,,,{8}6/5,
3/2,8h[8:1]/1h[8:1],{24},,,,,,{6}6h[12:1]/5h[12:1],1h[12:1]/8h[12:1],{48},,{16}2,2,
,8,7,6,1,1,{8}7/8,2/3,{16}5/6,6/5,,1h[8:1],,7h[8:1],
,,{8}2/3,5/6,E2,B3,B6,E8,B3/E4,
E8/B7,E6/B6,E2/B2,E6f,E2f,E8f,E4f,Cf,
,8xh[8:1]/1xh[8:1],,6bx/5bx,6bx/5bx,6bx/5bx,,1bx/2bx,
1bx/2bx,1bx/2bx,,8bx/7bx,8bx/7bx,{16}8bx/7bx,8bx/7bx,,8bx/7bx,{48},,,,,,{24}1x,
2x,3x,4x,5x,6x,7x,8x,{6}1x,{24}4/3h[8:1],,,1h[8:1],,,,,,{8}8h[16:1]/7h[16:1],
{16},4,{8}6,{4}5h[8:1],{8}8/7h[8:1],5h[8:1],{16},,2,8,
,1h[8:1],,,{4}7h[8:1],{16}6h[8:1]/5h[8:1],,,4h[8:1]/3h[8:1],,,{8}2h[8:1]/1h[8:1],
{16},8h[8:1]/7h[8:1],,,2/1,1/2,{8}3h[8:1],{16}4,5,,8,{8}7,1/2,
6/5,7/8,4/3,1h[8:1]/2-5[8:1],,,,8h[8:1]/7-4[8:1],
{24},,,,,,,,{12}1>4[6:1]/8<5[6:1],1/8,{24},,,,,,,,,{8}7/8,
4/3,2/1,6/5,4h[8:1]/3-8[8:1],,,,5h[8:1]/6-1[8:1],
{24},,,,,,,,,,{12}4b/3b,{24},7b/8b,,,1b/2b,,,6b/5b,,,{12}Cf,
{48},,,,,,,,,,,,,,,{16}2>2[16:31],{1},{4},,,{8},5x,
6x,7x,8x,{4}1x-5[8:9],
{8},,,,,,,,,,7/8,
6,{16}4,5h[16:1],,,{8}2/1,3,
{16}5,4h[16:1],,,{8}7h[16:1],{16}1,8h[16:1],,2,{8}1h[16:1],{16}3,2h[16:1],,4,
{8}3h[16:1],{16}5,4h[16:1],,,7x,8xh[16:1],,,2,1h[16:1],,6,{8}5h[16:1],
3/1,8/6,{16},,1,2,1,3,4,3,6,5,6,8,
7,8,,1h[16:3]/2h[16:3],{48},,,,,,,,,,,,,,{24}3,{48},2,,,3,,,4,,,{24}3,{48},2,,,3,,,4,
,,{24}3h[6:1],,,,,,,,7,,8,,2,,1,,4h[16:1]/3h[16:3],{48},,,,,,,C,,,,,,,,,,,{8}5h[24:7],
{24},,,,{12}8h[24:5],{24},,,{8}1,7,{16}2,1,
2,1h[16:3],{48},,,,,,,,,,,,,,{12}4,3,5,4,6/5,{24},{8}8h[8:3]/7h[8:3],
{16},,,,,,1,2,1,2,1,2,1h[8:1],,,2,
3,4,{8}5,8h[8:1],1h[8:1],{24},,{12}8-5-3[6:1],{3}2h[12:1],
{24},,1,8,7,6,5,4,,{8}2/3,8/1,7/6,5/4,7/8,
7h[4:1]/8h[4:1],{16},,,,1,2,1,3,4,3,6,5,6,8,
7,8,,Cf,,,,Ch[16:7],,,,,,,,8,
7,6,{8}5,{16}1,2,1,2h[8:1],,,{8}1h[8:1],{48},,,2,,3,,4,,5,,6,
,7,,8,,1,,2,,3,,4,,5,,,,,{8}1/7,3/5,8/6,{16}2/4,,,1/7,
,8h[16:3]/2h[16:3],,,,,1,2,1,3,4,3,6,5,6,8,
7,8,,Cf,
E
