&title=Booths of Fighters
&artist=RoughSketch
&first=0
&des=Mode
&lv_5=14
&inote_5=(225)
{1},
{4}45,4,4,
{8}6,5,7-5[8:1],,3,4,2-4[8:1],,,,
{4}5,45,3,
{8}6,5,7-5[8:1],,3,4,2-8[8:1],,,,
{4}45,6,7,
{8}3,4,2-4[8:1],,6,5,7-1[8:1],,,,
{4}54,3,2,
{8}6,5,7-5[8:1],,3,3z7[4:1],,,,,
{2}5b/6b,
{8}4,4,,4qq5[3:1]/5,,45,,,,
{8}6,5,7,4,,,,
{8}5,5,,1pp8[3:1]/5pp4[3:1],,1/5,,,,,
{4}48,15,26,37,48,15,26,37,48,
{8}1,5,2,6,3,7,4,8,
{8}5-1[4:1],5,,8w4[8:1],,8b,,,
{8}4,5,4v7[4:1],,7<4[4:1],,4>1[4:1],,1-5[4:1],,5<8[4:1],,8,,,,
{8}5,4,5v2[4:1],,2>5[4:1],,5<8[4:1],,8-4[4:1],,4>1[4:1],,1,,,,
{8}1,7,1-7[4:1],,7-2[4:1],,2-6[4:1],,6-3[4:1],,3V51[4:1],,1,,,,
{16}8,,1,8,1,,,,2,,1,2,1,,,,
{8}8,8,1,1,18,18,18,18,
{8}2-4[8:1]/7,,27,,2-4[8:1]/7,7,27,,2-4[8:1]/7,,27,,2-4[8:1]/7,,27,,
{8}2-4[8:1]/8,,28,,2-5[8:1]/8,8,28,,2-4[8:1]/8,,28,,2-5[8:1]/8,,28,,
{8}7-5[8:1]/1,,71,,7/1-3[8:1],1,71,,7/1-3[8:1],,71,,7-4[8:1]/1-4[8:1],,71,,
{8}38,2,2,2,61,7,7,7,36,36,27,27,18,18,27,,
{16}4b/5b,,,,3,,3,2,3,,3,1,3,,3,8,3,,3,7,3,,3,6,3,,
{8}3,3,3,
{16}5b/4b,,,,6,,6,7,6,,6,8,6,,6,1,6,,6,2,6,,6,3,6,,
{8}6,6,6,
{16}1b/8b,,,,2,,2,1,2,,2,8,2,,2,7,2,,2,6,2,,2,5,2,,
{8}2,2,2,
{16}8b/1b,,,,7,,7,8,7,,7,1,7,,7,2,7,,7,3,7,,7,4,7,,
{8}7,7,7,
{16}8b/1b,,,,18,,2,1,2,,7,8,7,,2,1,2,,7,8,7,,2,1,2,1,2,1,2,1,2,1,
{16}3b/8b,,,,81,,7,8,7,,2,1,2,,7,8,7,,2,1,2,,7,8,7,8,7,8,7,8,7,8,
{16}6b/1b,,,,18,,2,1,2,,7,8,7,,2,1,2,,7,8,7,,2,1,2,1,2,1,3,8,3,8,
{16}4b/7b,,,,4,5,4,5,3,6,3,6,2,7,2,7,
(200)
{12}1h[8:1]/8h[8:1],,1h[8:1]/3h[8:1],,6h[8:1]/8h[8:1],,
(100)
{8}2-5[12:1]/7-4[12:1],,
(175)
{4}2/7pp2[2:1],3-6[4:1],3,,
{8}5-3[8:1]/8-5[8:1],,58,,
{8}4-6[8:1]/1-4[8:1],,41,,
{4}7/2qq7[2:1],6-3[4:1],6,,
{8}7-4[8:1]/4-1[8:1],,47,,
{8}2-5[8:1]/5-8[8:1],,52,,
{4}1/6pp1[2:1],2v5[4:1],2,,
{8}4-8[8:1]/7-4[8:1],3,47,,
{8}7-3[8:1]/3-8[8:1],,37,,
{4}5/2pp5[2:1],6v1[4:1],6,,
{8}6-3[8:1]/3-8[8:1],2,36,,
{8}4-1[8:1]/7-4[8:1],,47,,
{16}7-3[8:1],,,2,7,,1,,
{4}8pp4[16:10]/7-4[8:1],7,7-5[8:1],7,3v8[8:1]/7-4[8:1],37,
{16}2-6[8:1],,,7,2,,8,,
{4}1qq5[16:10]/2-5[8:1],2,2-4[8:1],2,6v1[8:1]/2-5[8:1],62,
{16}6-2[8:1],,,3,6,,4,,
{4}5qq1[16:10]/6-1[8:1],6,6-8[8:1],6,2-5[8:1]/6-1[8:1],26,
{16}3-7[8:1],,,6,3,,5,,
{4}4-8[8:1]/3-8[8:1],34,
(155)
{16}1b/7b,,,2b/6b,,,3b/5b,,,
{16}4b-8[8:1],,,,8bw4[1:1],,,
(225)
{1},,,,
{4}5p8[2:1],1,2,3,4q1[2:1],8,7,6,
{4}5v8[2:1],1,2,3,4v1[2:1],8,7,6,
{12}3,4,3,6,5,6,3,4,3,6,5,6,3,4,5,6,7,8,
{4}1-5[8:1]/2-6[8:1],1b/2b,
{8}7-3[8:1],,1-5[8:1]/7,,1/8-4[8:1],,
{16}8,,,2,2-4[8:1]/1,,,,2/1-5[8:1],,,,8-6[8:1]/1,,,,8,,,,
{16}7-5[8:1]/8,,,,7/8-4[8:1],,,,1-3[8:1]/8,,,,1,,,,
{12}2,4,3,7,5,6,
{4}1-5[8:1]/8-4[8:1],1b/8b,
{8}2-6[8:1],,8-4[8:1]/2,,8/1-5[8:1],,
{16}1,,,7,7-5[8:1]/8,,,,7/4-8[8:1],,,,1-3[8:1]/4,,,,1,,,,
{16}2-4[8:1]/1,,,,2/5-1[8:1],,,,8-6[8:1]/5,,,,8,,,,
{12}7,5,6,2,4,3,
{8}8-4[8:1]/1-5[8:1],27,8b/1b,,
{4}7-3[8:1],7b,
{4}2-5[8:1],2/8-4[8:1],3-1[8:1]/8,3/5-7[8:1],3-1[8:1]/5,3/5,
{12}6,4,7,
{4}5-1[8:1],5/6-8[8:1],5/6,
{6}3h[12:1]/7h[12:1],1h[12:1]/5h[12:1],2h[12:1]/6h[12:1],
{6}2h[12:1]/6h[12:1],4h[12:1]/8h[12:1],3h[12:1]/7h[12:1],
{8}7-3[8:1],,1-5[8:1]/7,,1/8-4[8:1],,
{16}8,,,2,2-4[8:1]/1,,,,2/1-5[8:1],,,,8-6[8:1]/1,,,,8,,,,
{4}1bw5[8:1],,8bw4[8:1],,
{4}1-5[8:1],2-6[8:1],3-7[8:1],4-8[8:1],
{16}1b,,,,27,,3,4,3,,6,5,6,,3,4,3,,6,5,6,,3,4,3,,34,,34,,34,,2b/5b,,,,
{16}72,,6,5,6,,3,4,3,,6,5,6,,3,4,3,,6,5,6,,65,,65,,65,,7b/4b,,,,
{16}27,,3,4,2,,6,5,7,,3,4,2,,6,5,
{8}7-3[8:1],7,7,,,,
{8}2-4[8:1],1,28,,
{8}7-5[8:1],8,71,,
{6}4h[8:1]/8h[8:1],2h[8:1]/6h[8:1],3h[8:1]/7h[8:1],
{8}1-5[8:1]/5h[4:1],,1b,,
{8}2,,2-4[8:1],,2-5[8:1],6,2-4[8:1],,2-5[8:1],6,2-4[8:1],6,2-5[8:1],6,2-4[8:1],6,2b-6[2:1]*V46[2:1],
