&title=Shadow Flower
&artist=曲:Ned/歌:Moa
&first=0
&des=霊風
&lv_5=13
&inote_5=(142)
{1},
{8}4,4,5,6V42[4:1],,7h[8:3],,,
{8}3,3,4,5V31[4:1],,6h[8:3],,,
{8}2,2,3,4V28[4:1],,5h[8:3],,,
{8}1,2,3,4h[8:3],,5,,,
{8}5,5,6,7V53[4:1],,8h[8:3],,,
{16}4,,4,,5,,6h[4:1],,,,5h[4:1],,,,7,5,
{8}7,7,6,5qq3[4:1]*pp7[4:1],,5,,,
{8}2,3,4,5,6h[8:3],,,,
{12}3,5,2,6,4,7,1,6,2,8,3,7,
{16}1b,,,,,,,,7h[128:1],6h[128:1],5h[128:1],4h[128:1],3h[128:1],2h[128:1],1h[128:1],8h[128:1],
{8}7h[128:1]/3,3,4,5<8[8:1],,5,3h[8:1],,
{8}4,4,5,6<1[8:1],,6,5,4,
{8}7/3,7,8,1>4[8:1],,1,7h[8:1],,
{8}8,8,1,2>5[8:1],,2,1,8,
{8}4/7,4,3,2-5[8:1],,5,6-1[8:1],,
{8}7h[8:3],,,2,3,4,5,6,
{8}7h[8:3],,,2h[4:1],,8,1-5[8:7],,
{8},8,2,7,3,6,4,4,
{8}3/6,3/6,2,1-6[8:1]/7h[4:1],,1,7,5,
{8}4/7,4/7,3,2-7[8:1]/8h[4:1],,2,8,6,
{8}5/8,5/8,7,6-3[8:1]/4h[4:1],,6,4,2,
{8}1/4,1/4,8,7-4[8:1]/3h[4:1],,7,3,5,
{8}6h[4:1]/2,,5,5h[4:1],,4,4h[4:1],,
{16}3,,3,,5,,5,,3,4,3,,3/5,,5,,
{16}2/6,,2,,1/7,,7,,8,1,8w4[8:1],,2/6,,8b,,
{8},,,,6b,,,8b/2b,
{16},,1,1,1,,2/8-5[8:1],,,,4,,3,,2,,
{16}1>4[8:1],7,,7,1,,6,,6<1[8:1]/5,,4,,3,,2,,
{16}2,1,2,1,2,,3/8-5[8:1],,,,4,,3,,2,,
{16}1,7,1,7,1,,2/8-5[8:1],,,,8,,1,,2,,
{16}3,4,3,4,3,,2/5>2[8:1]*<8[8:1],,,,5,,,,2/8,,
{16}3,7,3,7,3,,1/5-8[8:1],,,,1,,2,,3,,
{16}4>1[8:1],7,,7,4,,8,7,6,5,4/1,,2,3,2,,
{16}1-5[8:1],5,,5,1,,6,,4,3,2,1,8,7,6,5,
{16}4/8,,3,,2,,1-4[8:1]/7,,,,5,,6,,7,,
{16}8<5[8:1],2,,2,8,,3,,3>8[8:1]/4,,5,,6,,7,,
{16}7,8,7,8,7,,6/1-4[8:1],,,,5,,6,,7,,
{16}8,2,8,2,8,,7/1-4[8:1],,,,1,,8,,7,,
{16}6,5,6,5,6,,4-7[8:1]/7,,,,2,,2,,3,,
{16}3,8,3,8,3,,1/2-5[8:1],,,,5,,6,,7,,
{16}8-4[8:1],4,,4,8,,3<6[8:1],,,,2,,3h[8:1],,,,
{16}4-1[8:1],5,,5,4,,6h[4:1],,2,3,4,5,6,7,8,1,
{8}2/6,5,4,3,6,5,4,3,
{8}6,5,4,3,6,5,4,3,
{16}4,5,4,,6,,5,,4,,3,,6,,5,,
{16}3/4,,3,4,3,,1/6,,2,2,7,7,1b,,5,5,
{8}4,3,8,7,3,2,7,6,
{8}2,1,6,5,{16}1,,7,8,7,,1/7,,
{16}2/6,,3/7,,4/8,,1/5,,3<6[8:1]/7h[8:3],,1,2,3,,,,
{16},,7,6,5,4,3,2,1b,,,,,,7b/8b,,
{16},,1,1,1,,2/8-4[8:1],,,,4,,3,,2,,
{16}1>4[8:1],6,2,7,1,,8,,8-4[8:1]/5,,4,,3,,2,,
{16}1-5[8:1],6,8,7,1,,8-4[8:1],,,,4,,3,,2,,
{16}1>4[8:1],6,3,8,1,,7-3[8:1],,,,3,,2,,1,,
{16}8,4,1,5,2,6,3-6[8:1]/7-2[8:1],,,,3/7,,,,1/5,,
{16}8,7,6,5,4,,4/2,,1,2,3,4,5,,5/7,,
{16}6,5,6,4,6,3,6,2,6-3[8:1],1,6,8,6b,,1b,,
{16}2,4,3,5,2,,3/4,,2,1,8,7,6,5,4,3,
{16}8,2,8,2,8,,1-5[8:1]/6,,,,5,,6,,7,,
{16}8-4[8:1],3,7,2,8,,1,1,5-7[8:1],,2,,2,,3,3,
{16}8-4[8:1],3,1,2,8,,1-5[8:1],,,,5,,6,,7,7,
{16}4,6,3,5,2,4,1-5[8:1],,,,5,,6,,7,7,
{16}3-8[8:1],8,2,1,3,,7-4[8:1],,,,1,,2,,3,3,
{16}5-8[8:1],4,6,3,5,,2-5[8:1],,,,8,,7,,6,6,
{16}4-8[8:1],7,3,6,4,,5-1[8:1],,,,1,,2,,3,3,
{16}8,4,7,3,6,2,5,1,4h[128:1],3h[128:1],2h[128:1],1h[128:1],8h[128:1],7h[128:1],6h[128:1],5h[128:1],
{8}4pp7[4:7]/8>3[2:1],,,,,,,4V28[8:7],
