&title=Parousia
&artist=xi
&first=0
&des=もふもふウサギ
&lv_5=13+
&inote_1=
&inote_2=
&inote_3=
&inote_4=
&inote_5=(158){1},,,
{2}
4/5h[2:1],8h[2:1],2h[2:1],4h[2:1],
3h[2:1],5<2[2:1],5b,{4}26,35,
4q1[4:1]/8^5[4:1],,,5p8[4:1]/1^4[4:1],
15,,7h[4:7],,2q4[2:1],,,,8h[4:1],,{16}2,6,1,7,3,8,4,7,
{8}
6/5-1[8:1],6,6,6,8-3[8:1]/6,6,6,6,
7/2-5[8:1],7,7,7,7/4-8[8:1],7,7,7,
6/1-3[8:1],6,6,6,6/5>8[2:1],6,6,6,
5bpp7[4:1],,,,4w8[8:1],,,,
2h[8:1],4,2h[8:1],5,2h[8:1],6,{16}2,3,4,5,
{8}7h[8:1]/6,5,7h[8:1],4,{16}7,3,6,4,5,2,6,1,
{8}7-4[8:1]/8,7,2-5[8:1]/7,2,12,1,{24}4>5[8:7],8,4,8,4,8,
{4}4b,,,,
{16}3,4,2,5,1,6,8h[8:1],,6,5,7,4,8,3,{8}1h[8:1],
2h[8:1],{24}8,7,6,1,2,3,7,6,5,2,3,4,8,7,6,{8}5pp1[8:3]/1pp5[8:3],84,
5b/1b,,,,{16}4,6,4,6,3,5,3,5,
2h[8:1]/6h[8:1],,,1h[8:1]/7h[8:1],,,{8}28,
{4}2^5[8:1]/8^5[8:1],2z6[4:1]/8s4[4:1],
,,{16}5,3,5,3,6-1[8:1],4,6,4,
{8}6,2b-5[8:1],,28,8,7b,4qq8[8:3]/8qq4[8:3],15,
4b/8b,,,,{16}5,3,6,3,7,3,8,3,
2h[8:1]/1h[8:1],,,3h[8:1]/8h[8:1],,,{8}47,
{4}4^1[8:1]/7^4[8:1],47,
{16}2b/6<3[4:1],3b,4b,5b,{4}6b,{16}4,5,6,7,8,1,2,3,
{8}8z4[8:3]/4,1bs5[4:1],,,,,2-5[8:1]/6-1[8:1],15,
{4}26,{16}8,4,7,3,6,2,5,1,{4}4-7[8:1]/8-3[8:1],
48,{16}6,5,7,3,4,2,6,3,7-4[8:1],4,{8}8,
7,3b-8[8:1],,35,6b,,{16}1>8[2:1],7,1,7,
{4}1b,,1b,{8}7-4[8:1]/3qq8[4:3],84,
{4}73,5,6,7qq4[2:1],
{16}1,,,1,,,1,,{6}2h[6:1],3h[6:1],4h[6:1],
{16}5,6,7,8,1,2,3,4,{4}5qq2[2:1]*pp8[2:1],,,,3q5[2:1]/7h[4:1],,
5<4[4:3],,,5,5b,,48,26,
4V61[2:1]/8V25[2:1],,,,8h[4:1],7h[4:1],6h[4:1],5h[4:1],
4>5[4:3],,,4,4b,,{6}26,37,48,
{4}5V38[2:1]/1V74[2:1],,,,5b,,4/5h[4:1],1-4[4:1],
4-8[4:1],8-3[4:1],3-7[4:1],7-2[4:1],
2-6[4:1],6-1[4:1],1-4[4:1],4-8[4:1],
8-3[4:1],3-7[4:1],7-2[4:1],2-6[4:1],
6-1[4:1],1,5,37,
{8}5^2[4:1]/6p1[4:1],56,,,,,37,,
1^6[4:1]/2p5[4:1],12,,,,,37,,
{16}4,5,3,6,2,7,1,8,1,8,2,7,3,6,{24}4,5,4,
{4}3<8[2:1]/6>1[2:1],,,,4-1[8:5]/7-2[8:5],,,,
8b,7/1h[4:1],2h[4:1],3h[4:1],
4<8[8:1],24,{16}2,1,4,7,3,8,5,6,
{8}7/8-3[8:1],1,78,5,2/1-6[8:1],8,21,4,
{4}5w1[8:1],5,4q8[8:1]/5^7[8:1],4>5[2:1]/5p4[2:1],
45,,{8},6^1[16:3],8^3[16:3],2^5[16:3],
4<8[4:1],,{16}8,1,2,3,{8}4,2/1-6[8:1],8,21,
4-1[8:1],3,45,7,{6}2b/6b,3b/8b,1b/5b,
{8}4b/7h[8:3],,2,{24}2,3,4,{8}5h[8:3]/6b,,8,{24}8,7,6,
{8}5-1[8:1]/4b,2,3-8[8:1]/5,4,3/6-1[8:1],5,64,3,
{32}2,3,4,5,6,7,8,1,{4}2h[4:3]/4b-8[8:1],4,{8}5,6,
{32}7,6,5,4,3,2,1,8,{4}7h[2:1]/5b-1[8:1],5,{16}4,7,4,7,
{16}2,1,3b/8b,,2,5,2,5,8,7,1b/6b,,{24}1,2,3,5,6,7,
{6}1b/8,2/7b,3b/6,4/5b,3b/6,2/7b,
{4}8-4[8:1]/1b,8/2-5[8:1],6-1[8:1]/2,3-7[8:1]/6,
{8}5-1[8:1]/3,6,4-8[8:1]/5,3,4/6-1[8:1],5,63,4,
{16}8,2,8,2,7,3,7,3,6,4,6,4,{24}5p4[2:1]*<4[2:1],1,5,1,5,1,
{4}5,,,{8}7-4[8:1]/3-8[8:1],84,
{4}73,{16}1,5,2,6,3,7,4,8,{4}5-2[8:1]/1-6[8:1],
51,{16}3,4,1,6,5,8,4,7,3,6,{8}2,
1v4[8:1]/5v8[8:1],4>8[4:1]/8<4[4:1],,,,,{16}1-6[8:1],8,2,7,
{4}8-3[8:1]/1,2-5[8:1]/8,2/7-4[8:1],17,
{8}12,38,{24}6,5,6,{8}5,78,16,{24}3,4,3,{8}4,
18,27,{24}5,4,5,4,5,4,{4}3-7[8:1]/6-2[8:1],36,
{16}18,,1,8,2,7,3,6,4,5,4,6,5,7,5,6,
3b,6,5,6,2b,6,5,6,1b,6,5,6,8b,7,8,7,
8>8[2:1]*>8[2:1],1>1[2:1]*>5[4:1],
2>2[2:1]*>6[4:1],3<3[2:1]*<7[4:1],
{4}8/4<4[2:1],8,4w8[2:3],
{1},
(148){1},{2}2h[64:1],6,
(138)3,5,{16},{1}4b,,,E
