&title=あの光
&artist=乃木坂46
&first=0
&des=ATRI
&des_5=夜北
&des_6=reflectW
&lv_5=12
&lv_6=12+
&inote_5=(126){1},{8},,,,
{16}7,8,6v1[12:1]/1,,,,4-1[12:1]/6,,3,,4/2v5[12:1],,,,8pp3[8:3]/2,,7,,6h[8:4]/8,,,,,,,,4,6,,3,5,,2,1,3v8[12:1]/8,,,,5-8[12:1]/3,,6,,5/7v4[12:1],,,,1qq6[8:3]/7,,2,,3h[8:4]/1,,,,,,,,5,3,,6,4,,7,,8/1qq6[8:5],,,,
{8}2,,2,,2,
{16},,3,,5,3,,4,,4,6,,5,,5,7,,7,8pp3[8:5],,,,
{8}7,,7,,7,
{16},,6,,4,6,,5,,5,3,,4,,4,2,,2,
{8}7pp6[16:8],,5,5,,4,4h[8:2],,2qq3[16:8],,4,4,,5,5h[8:2],,7h[8:2],,6pp1[8:3],6,,2,2h[8:2],,3qq8[8:3],,6,6,,5,5w1[12:1],,5b,
{16},2h[16:3],,,4h[16:3],,,5h[16:3],,,7qq3[8:3],,,,3,,,3,,,4,,,4,,,5,,,,7h[16:3],,,5h[16:3],,,4h[16:3],,,2pp6[8:4],,,2,,,,6,,,6,,,5,,5,,4,3,5,2,6,1,7<4[8:1],,,8,,,1,,2<7[8:1],,,3,,,4,,5>2[8:1],,,6,,,7,,78,,78,,61,,61,,5/2>5[12:1],,,,6,,7<4[12:1],,,,3,,2qq6[8:3],,,,
{8}5,5,5,5,
{16}5,8,6,1,7,2,8,3,1h[8:11],,,,2,,,,8,,,3,,,7,,,,4,,6,,5bw1[8:1]*w1[8:1],,,,,,,,
7,8,
{8}5v8[12:1],6,53,4<7[8:1],,4v1[12:1]/2,3,4/5>2[8:1],,6/5<8[8:1],,4/5,
{16}2,1,,7,8,,51,,
{8}4qq5[16:3],3,64,5>1[8:1],,5pp4[16:3]/7,6,5/4<8[8:1],,1h[8:3],,7,
{16}7,8,,2,1>7[8:2],,84,,5h[8:3]/1,,,,,,8,,1,7,,2,8<2[8:2],,73,,8/4h[8:3],,,,,,1,,8,2,,7,1,,62,,
{8}5-7[12:1],6,3-1[12:1],2,6-8[12:1],7,4-2[12:1],3,
{16}8h[16:3]/4b,,,6h[16:3],,,4>6[8:1],,3h[8:2],,,,
{24},2,1,8,7,6,
{8}1bv4[12:1]/5b,2,17,8v5[12:1],,8>3[12:1]/6,7,8v3[12:1]/2,,8<5[12:1]/2,1,8/6,
{16}7,4,,6,3,,2,6,
{8}8v5[12:1],7,82,1v4[12:1],,1<6[12:1]/3,2,71,5v8[12:1],4v1[12:1],5,4,
{16}7,6h[8:1],,3,4h[8:1],,5,,
6v1[12:1],5,,5,6,,4h[8:1],,2>5[8:1],,,1,,,8,,7<4[8:1],,,8,,,1,,2v5[12:1],4,,4,2,,6,5,7h[8:2],,8,,1,,3,4,2h[8:2],,1,,8,,6,5,7b,8,6,1,5,2,4,3,1b,2,8,3,7,4,6,5,
{32}7b,6,5,4,3,2,1,8,7,6,5,4,3b-6[8:1]/2b-7[8:1],,,,,,,,,,,,,,,,
{16}7,8,61,,
2-5[12:1],3,5,,2<6[12:1],,8-4[12:1],,2,,8,,3qq8[8:4],,5pp8[8:3],,,,,,,,,,,,71,,71,,82,,7-4[12:1],6,4,,7>3[12:1],,1-5[12:1],,7,,1,,6pp1[8:4],,4qq1[8:3],,,,,,,,,,,,28,,73,,6/4h[8:10],,,,3,,,,5,,,2,,,6,,,,1,,7,,8s4[8:3]/4z8[8:3],,,,,,,,,,,,
,,,,
&inote_6=(126){1}
,{8},,,,
{16},,3>6[16:4],,,,6<3[4:1],,,,3>6[4:1],,,,6<3[4:1],,,,3p6[2:1]*>6[2:1],,,,,,,,,,,,,,,,6<3[4:1],,,,3>6[4:1],,,,6<3[4:1],,,,3>6[4:1],,,,6p3[2:1]*<3[2:1],,,,,,,,,,,,,,,,6-8[8:1]/4qq1[8:5],,,,
{8}6-4[8:1],,6-8[8:1],,6-4[8:1],
{16},,6pp1[2:1]/2V46[2:1],,,,,,,,,,,,,,,,3-1[8:1]/5pp8[8:5],,,,
{8}3-5[8:1],,3-1[8:1],,3-5[8:1],
{16},,3qq8[2:1]/7V53[2:1],,,,,,,,,,,,,,,,
{8}7p6[16:4],,5q2[4:1],5-8[8:1],,,,,2q3[16:4],,4p7[4:1],4-1[8:1],,,,,5pp8[4:1],,1V73[4:1],1-4[8:1],,,,,4qq1[16:5]/6pp1[16:5],,,,,,5w1[2:1],,,
{16},,,,,,,,,,6^3[8:1],,,,2>8[16:5]*V41[16:5],,,,,,,,,,,,4>8[4:1],,,,8<4[4:1],,,,,,,,,,,,3qq5[8:6]/6pp4[8:6],,,,,,,,,,,,,,,,,,,,8-5[8:1]/3v8[8:1],,,,,,,,1^4[8:1]/4v7[8:1],,,,,,,,5>2[8:1]/8v5[8:1],,,,,,,,1v6[8:1]/6-1[8:1],,,,,,,,8-5[8:1],,,,,,1-4[8:1],,,,,,5<3[8:7],,,,
{8},,,,
{16},,,,,,,,4b-8[8:11]*-8[8:11],,,,,,,,,,,,,,,,,,,,,,,,,,,,,,
,,
{8}5^8[8:1],,5-2[8:1],2V47[16:3],,1-5[8:1],,1-6[8:1]*-7[8:1],,1>8[16:5]*p8[16:5],,,
{16},,,,,,1^4[8:1],,
{8}4^1[8:1],,8q4[8:1],7v5[16:2],,7-2[8:1],,7v4[8:1]*-5[8:1],,7>4[4:1]*p4[4:1],,,
{16},,,,1-5[8:1],,5-1[8:1],,1>7[8:3]*q7[8:3],,,,,,,,,,,,,,5-8[8:1],,8-3[8:1],,,,4pp4[8:2]*qq4[8:2],,,,,,,,,,6-3[8:1],,
{8}3-6[8:1],2^5[8:1],,2^7[8:1],7^2[8:1],2^5[8:1],,,
{16}8-4[16:1],,,6-2[16:1],,,5-8[16:1],,3>4[16:3],,,,
{24},,,,,,
{8}7^2[8:1],,7-4[8:1],4V25[16:3],,1-5[8:1],,1-4[8:1]*-3[8:1],,1>8[16:5]*pp8[16:5],,,
{16},,,,,,4^1[8:1],,
{8}1^4[8:1],,5p1[8:1],7^4[16:2],,7-2[8:1],3-6[8:1],7-4[8:1],3-8[8:1],7-3[8:1],3w7[8:1],,
{16},,,,2-5[8:1],,5v3[8:1],,
6^1[8:1],,,,,,4-1[8:1],,1V38[8:1],,,,7V51[4:1],,7V13[4:1],,1V75[4:1],,,,,,,,4^7[16:2]*^1[16:2],,,,,,,,8v3[8:1]*v5[8:1],,,,,,,,4v1[8:1]*v7[8:1],,,,,,,,2-4[8:1],,7-5[8:1],,2-5[8:1],,7-4[8:1],,2-6[8:1],,7-3[8:1],,2-7[8:1],,7>6[8:5],,
{32},,,,,,,,,,,,,,,,,,,,,,,,,,,,
{16},,3>6[16:4],,,,6<3[4:1],,,,3>6[4:1],,,,6<3[4:1],,,,3p6[2:1]*>6[2:1],,,,,,,,,,,,,,,,6<3[4:1],,,,3>6[4:1],,,,6<3[4:1],,,,3>6[4:1],,,,6qq3[2:1]*<3[2:1],,,,,,,,,,,,,,,,4b-8[8:11]*-8[8:11],,,,
,,,,
