&title=sølips
&artist=rintaro soma
&first=0.05
&des=ø
&lv_5=14+
&inote_5=(199)
{8},,,,,,,,,,,,,,,,,,,,,,,,,,,,,,,,,
{8}4qq5[2:1]/6,,,7,,7,,,6h[16:10]/5,,,,,4,4,5,3qq4[2:1],,,5,,5,,,4/5h[16:10],,,,,3,3,4,2qq3[2:1],,,4,,4,,,3h[16:10]/4,,,,,5,5,4,6h[4:1],,
{8}5,5,6,4,4,
{16}6,5,4,2,3,4,5,,7,,5,,5,,6,,4,,5z1[2:3]/3s7[2:3],,,,,,,,,,,,,,,,,,,,,,,,,,,,,,,,26,,,,
{16}3h[16:3],,,5h[16:3],,,2h[16:3],,,1h[16:3],,,3,,
{12}3,5,2,6,4,7,1,8z4[16:3],,,48,,,,,,{24},
{8}2/4-8[4:1],,,,4-8[4:1],,,5,4-8[4:1]*-8[64:14],,,,4-8[4:1],,,6z2[16:8],4s8[18:7],,,,,,,,75,7,64,6,35,26,,6,7/5-1[4:1],,,,5-1[4:1],,,4,5-1[4:1]*-1[64:14],,,,5-1[4:1],,,3s7[16:8],5z1[18:7],,,,,,,,28,37,46,46,37,37,2/8-4[8:1],28,1b,,,,
{16}3,5,3,5,
{8}2-5[8:1],,,1-4[8:1],,,5-2[8:1],,,1-4[8:1],,,2,,,3-6[8:1]/5,26,,7,7,5,5,6,64,3/7-4[8:1],,,8-5[8:1],,,4-7[8:1],,,8-5[8:1],,,7,,,46,46,37,3q5[16:8]/7p5[16:8],28,,,,,,,
{8}8/7V51[16:3],,1,2h[4:1],,8-3[16:3],37,,5,5h[4:1],,3,3>6[4:1],,4,,4,,5,2v5[8:1]/6v1[8:1],,26,,,3/8<4[16:3],,2,,3,3,4,,
{8}1/2V48[16:3],,8,7h[4:1],,1-6[16:3],62,,4,4h[4:1],,6,6<3[4:1],,5,,5,,4,7-4[8:1]/3-8[8:1],,73,,,6/1V35[16:3],,7,,6,6,5,7,4/8-4[1:1],,,,,,,,8,,8-4[16:15]*-4[16:15],,,,,,8,,8-4[8:1],,,,26,,
{24}3h[12:1]/4h[12:1],,,,4h[12:1]/5h[12:1],,,,5h[12:1]/6h[12:1],,,,
{24}2h[12:1]/4h[12:1],,,,3h[12:1]/5h[12:1],,,,4h[12:1]/6h[12:1],,,,
{8}2b/8bV61[4:1],,3,4V25[4:1],,8,7V53[4:1],,1,,2,2,3/1-5[8:1],,18,,46,,7,7,5,5,
{16}46,,37,,
{16}2,8,2,8,1,7,1,6,1b-5[8:1],,,,41,,,,
{32}7b-3[16:1],,,,,,4b-8[16:1]*-8[16:1],,,,,,5b,,,,,,,,6,,,,6b-2[16:1],,,,,,3b-8[16:1]*-8[16:1],,,,,,7b,,,,,,,,
{16}6,,6,,1,7,1,6,1,5,{32}2b-6[16:1],,,,,,5b-1[16:1]*-1[16:1],,,,,,4b,,,,,,,,3,,,,3b-8[16:1],,,,,,6b-2[16:1]*-2[16:1],,,,,,4b,,,,,,,,1,,,,
{12}1,3,3,8,2,2,
{32}7b-5[16:1],,,,,,8b-4[16:1]*-4[16:1],,,,,,1b,,,,3,,,,3,,,,5b-1[16:1],,,,,,3b-8[16:1]*-8[16:1],,,,,,7b,,,,6,,,,6,,,,
{16}1,7,1,6,1,5,1,4,
{16}2h,5,3h,6,2h,5,3h,6,1>8[16:6],7,2h,6,3h[8:6],,,,,,,,,,,,1w5[8:1],,,,1,,,,3bq5[1:2]/7b,,,,,,,,,,,,,,,,,,,,,,,,,,,,,,,,6,,,,6p4[1:2],,,,,,,,,,,,,,,,,,,,,,,,,,,,2,,,,2pp7[1:2],,,,,,,,,,,,,,,,,,,,,,,,,,,,8,,,,8p6[1:1],,,,,,,,,,,,,,,,4,,,,4,,,,,,,,
{16}6h[4:1],,4h[4:1],,,,5h[8:6],,3h[1:1],,,,,,,,,,,,4,,,,4,,3/5h[8:3],,,,,,4h[4:1],,6h[4:1],,,,3h[4:1],,5h[4:1],,,,4h[4:1],,5,,6h[8:3],,,,,,5h[8:3],,,,,,4h[8:2],,,,
{16}3h[4:1],,5h[4:1],,,,4h[8:6],,6h[1:1],,,,,,,,,,,,5,,,,5,,6/4h[8:3],,,,,,5h[4:1],,3h[4:1],,,,6h[4:1],,4h[4:1],,,,6,,6,,4,,5,,5,,3,,4,,4,,2,,3,,
{8}4bqq5[2:1]*qq5[2:1]/6b,,,7,,7,,,6h[16:10]/5,,,,,4,4,5,3qq4[2:1]*qq4[2:1],,,5,,5,,,4/5h[16:10],,,,,3,3,4,2qq3[2:1]*qq3[2:1],,,4,,4,,,3h[16:10]/4,,,,,8h,,,
{16}2h[8:1]/6h[8:1],,,,
{24}1,8,1,8,,,3h[8:1]/7h[8:1],,,,,,2,8,2,8,,,3h[8:1]/7h[8:1],,,,,,6,5,6,5,,,7h[8:1]/3h[8:1],,,,,,4,6,4,6,,,
{24}7,6,5,4,8,7,6,5,2,3,4,5,
{32}1,2,3,4,5,6,7,8,1s5[16:3],2,3,4,5,6,7,8,15,,,,,,,,,,,,,,,,
{8}4/5s1[32:5]*s1[64:8],,,,
{16}8/2h[4:1],,,,3-7[8:1],,,,1,,1>4[8:1],,8,,7h[4:1],,,,5h[4:1],,7,,6h[4:1],,8,,4,,3-7[8:1],,25,,1V35[8:1],,,,18,,,,7-3[8:1],,7,,5-2[8:1],,5,,1,,8-4[8:1],,7,,18,,
{32}2,,,,
{24}3b,5,3,5,,,6b,4,6,4,
{16}8-4[8:1],7,6,5,4,{96},,{16}8-4[8:1],7,6,5,4,,7b,,7,,2-6[8:1],,2,,4<7[8:1],,4,,
{16}8-4[8:1],1,2-5[8:1],,8,,2,,1bV35[16:3],,,,8,,8,,7bV51[16:3],,,,2,,2-5[8:1]*-6[8:1],,,,2b,,,,1b-4[8:1]/7-4[8:1],,2/6b,,,,,,,,
{16}4/7h[4:1],,,,6-2[8:1],,,,8,,8<5[8:1],,1,,2h[4:1],,,,4h[4:1],,2,,3h[4:1],,1,,5,,6-2[8:1],,74,,8V64[8:1],,,,81,,,,2-6[32:3],,2,,5,,
{32}8,1,2,3,
{48}4b/7b,,,,,,,,
{48}3b/6h[12:1],,,,,,,,5b/2h[12:1],,,,,,,,3b/7h[12:1],,,,,,,,2h[12:1]/6b,,,,,,,,5b/1b,,,,,,,,
{8}8V64[8:1]/2,3,8,2h[4:1],,4-1[8:1],5,64,,7<3[8:1]/8V64[8:1],,87,,2,18,78,6/7-3[8:1],,7,4<8[8:1],,1,2-6[8:1],,2,1<6[8:1],,
{16}61,5,4,3,2,1,8b/4b,,,,
{16}5h[8:1]/1h[8:1],,,2h[8:1]/6h[8:1],,,37,,3/7-3[8:1],,,,5V31[8:1],,,5V71[8:1],,,5,,,,2,,37,,,37,,,
{24}5,4,6,5,,,
{16},73,,,28,,2-6[8:1]/8,,,,4V68[8:1],,,4V28[8:1],,,4,,,,
{16}7,,62,,{24}7,6,5,8,1,2,3,,,
{16}4h[8:1]/8h[8:1],,,7h[8:1]/3h[8:1],,,62,,6/2-6[8:1],,,,4<8[8:1],,,4>8[8:1],,,4,,,,7,,62,,,62,,,
{24}4,3,5,4,,,
{16},26,,,71,,7-3[8:1]/1,,,,5>1[8:1],,,5<1[8:1],,,5,,,,,,
{16}28,,28,,37,,37,,
{16}4b-8[8:1],,7<4[8:1],,4,,7,,
{16}1-5[8:1],,2-4[8:1],,1,,2,,6-2[8:1],,7,,8-4[8:1],,1,,3>6[16:2],,3,,5,,5,,
{16}5b-1[8:1]/4,,2>5[8:1],,5,,2,,
{16}8-4[8:1],,7-3[8:1],,8,,7,,2-6[8:1],,1,,8-4[8:1],,7,,5,,5h[4:1],,2<5[8:1],,
{16}2,,5,4,3,2,1,8,7,6,53,2,1,8,7,6,5,4,
{16}2h,3,2h,3,2h,1,2h,8,2h,7,2h,6,2h,5,2h,4,3b,3b,3b,3b,3b,3b,3b,3b,
{24}2b,3,4,8,7,6,2,3,4,1,2,3,7,6,5,8,7,6,1,2,3,7,6,5b/4b,3,2,1,87,6,5,4,3,2,1,8,7,
{24}5h,6h,5h,6h,5h,6h,5-1[16:1],6h,5h,6h,5h,6h,
{16}5bs1[1:4]*s1[1:4],,,,,,,,,,,,,,,,,,,,,,,,,,,,,,,,4,6,4,6,4,6,4,6,3,5,3,5,3,5,3,5,4,5,4,5,4,5,4,5,4,6,4,6,4,6,4,6,5h,
