&title=CafePoe
&artist=柚子花
&first=0
&des=柚奈奈
&lv_5=13
&inote_5=(127){1},
{2}6^3[8:1],3^6[8:1],7^4[8:1],2^5[8:1],
{2}7v5[8:1],2v4[8:1],6v4[8:1],3v5[8:1],
{4}7v4[8:1],17,2v5[8:1],28,
{4}6^3[8:1],68,3^6[8:1],31,
{4}3/7-5[8:1]*-4[8:1],7,6/2-4[8:1]*-5[8:1],2,
{4}7p5[4:1],7/3,2q4[4:1],2b/6,
{4}8-5[8:1],8/5q8[8:3],2^5[8:1],,7-4[8:1],7>3[4:1],5x-1[8:1],,
{4}1-4[8:1],1/4p1[8:3],7^4[8:1],,2-5[8:1],2<6[4:1],4x-8[8:1],,
{4}6q3[8:1],4v5[8:1],7^2[8:1],3p6[8:1],5v4[8:1],2^7[8:1],6v3[8:1]*v1[8:1],6bx,
{4}2-6[8:1],2^4[8:1]/6^8[8:1],26,B5/E6/E5/B6/B4/B1/E1/E2,
{4}7-3[8:1],7^5[8:1]/3^1[8:1],73,B4/E4/E5/B3/B5/B8/E1/E8,
{4}2-5[8:1],2/5p2[8:3],8^5[8:1]/5x,,1^4[8:1],1/7q8[8:3],7/5^2[8:1],,
{4}7-4[8:1],7/4q7[8:3],1^4[8:1]/4x,,8^5[8:1],8/2p1[8:3],2/4^7[8:1],,
{4}8^3[8:1],4p7^4[8:3]*qq4[8:3]/8,4x,,2^5[8:1],2/7p6[8:3],7/4^1[8:1],,
{4}1^6[8:1],6q2^5[8:3]/1,2q6[8:1]/6x,,7^4[8:1],7/2^7[8:1],2/5p4[4:1],,
{4}2-4[8:1],E6,5-3[8:1],E7,2-4[8:1],B6,5-3[8:1],E8,
{4}7-5[8:1],E4,4-6[8:1],E3,7-5[8:1],B3,4-6[8:1],E2,
{4}1v3[8:1],B8,7v5[8:1],B8,3v5[8:1],B2,6v4[8:1],B7,
{4}2v8[8:1],B6,6v8[8:1],B3,4v2[8:1],B5,5v7[8:1],B4,
{4}1>5[4:1],5qq6[8:3],7-1[8:1],,1-3[8:1],7pp6[8:3],4-2[8:1],,
{4}5<1[4:1],1qq2[8:3],3-5[8:1],,5-7[8:1],3pp2[8:3],8-6[8:1],,
{4}4-8[8:1]/1^3[8:1],1p7[8:3],5^2[8:1],,6-4[8:1],3/6pp1[8:3],6/2^5[8:1],,
{4}5-1[8:1]/8^6[8:1],8q2[8:3],4^7[8:1],,3^6[8:1],7pp2[8:3]/3,7b/3^6[8:1]`Cf,,
{4}1^6[8:1]/5^2[8:1],1q4[8:3],5-8[8:1],,3/7-1[8:1],7^5[8:1]/4qq1[8:3],7-4[8:1],,
{4}8^3[8:1]/4^7[8:1],8p5[8:3],4-1[8:1],,6/2-8[8:1],2^4[8:1]/5pp8[8:3],2-5[8:1],,
{4}1^6[8:1],5q2^5[8:3]*pp5[8:3]/1,5,,7-5[8:1]/2-8[8:1],7/2q3[8:3],2/5^8[8:1],,
{4}8^2[8:1]/3^5[8:1],3p7^4[8:3]/8,7p3[8:1]/3,,2-4[8:1]/7-1[8:1],2/7p6[8:3],7/4^1[8:1],,
{4}5^7[8:1]/8-4[8:1],5qq2[8:3],8-6[8:1],8,
{4}1^4[8:1]/5v8[8:1],1qq6[8:3],5^2[8:1],5,
{4}1^3[8:1]/4-8[8:1],1qq6[8:3],4-2[8:1],4,
{4}5^8[8:1]/1v4[8:1],5qq2[8:3],1^6[8:1],1,
{4}5V71[4:1]/1-3[8:1],1qq2[8:3],3-5[8:1],3,
{4}5x^7[8:1]/3x^1[8:1],3pp2[8:3],8^5[8:1],8b,
{4}1V35[4:1]/5-7[8:1],5qq6[8:3],7-1[8:1],7,
{4}1x^3[8:1]/7x^5[8:1],7pp6[8:3],4^1[8:1],4b,
{4}5-8[8:1],8p5[8:3]/5,{16}4,,,3,,,2,,
{8}6-2[8:1],4,6/2pp5[8:3],,{16}6,,,7,,,8,,
{4}4-1[8:1],1q4[8:3]/4,{16}5,,,6,,,7,,
{8}3-7[8:1],5,3/7qq4[8:3],,{16}3,,,2,,,1,,
{8}4qq4[4:1]/8h[4:1],,4p7^4[8:3],,{16}1,,,2,,,3,,
{8}4-8[8:1],2,4/8qq4[8:3],,{16}3,,,2,,,1,,
{8}5-1[8:1],,5/1pp5[8:3],,{16}6,,,7,,,8,,
{8}6<1[8:1],2,4qq4b[4:1]*pp4[4:1],,4b,
