&title=Fly of Beelzebub
&artist=DM DOKURO
&first=0
&des=Tail_R
&lv_5=13+
&inote_5=(180)
{1},
{8}2-7[16:3],,,3pp6[16:5],,,,,,,
{8}7-2[16:3],,,6qq3[16:5],,,,,,,
{8}2-7[16:3],,,3pp6[16:5],,,,,,,
{16}7-2[16:3],,,,,,6-3[16:3],,,,,,2,,2,,1,,3,,
{8}2-5[16:3],,,7pp4[16:5],,,,,,,
{8}3-8[16:3],,,6qq1[16:5],,,,,,,
{8}2-5[16:3],,,7pp4[16:5],,,,,,,
{8}3-8[16:3],,,6-1[16:3],,,3,2,8,7,
{16}3,4,3,4,2h[8:1],,6,5,6,5,7h[4:1],,E3,,E4,,E7,,E6,,
{16}2,4,2,4,1h[8:1],,7,5,7,5,8h[4:1],,D3,,D4,,D7,,D6,,
{16}3,4,2,4,2h[8:1],,6,5,7,5,7h[4:1],,A3,,A4,,A6,,A5,,
{16}2,4,3,4,1h[8:1],,6,5,7,5,8h[8:1],,3,4,2,,1/7,,5/6,,
{16}3,4,2,1,3h[8:1],,7,5,6,4,5h[8:1],,2-5[8:1],,2,,5,,6,,
{16}7,8,6,4,7h[8:1],,2,4,3,5,4h[8:1],,8-4[8:1],,8,,4,,3,,
{16}2,1,3,5,4h[8:1],,6,5,7,4,8h[4:1],,3-8[8:1],,3,,8,,7,,
{16}6,4,7,1,6h[8:1],,2,5,3,6,4h[8:1],,7,7,5,,6/4,,1/8,,
{16}3,4,2/5,,,,7,8,1/6,,,,2,1,3,8,4-8[8:1],,,,
{8}4b/5,,1/7,1,2/6,2,3-1[8:1]/5,,3-5[8:1]/7,,
{8}3/5>1[4:1],,7,6,6h[4:1],,8^3[8:1],,5,6,
{8}7h[4:1],,4,4,3/7,3,2/8-6[8:1],,8-2[8:1]/4,,
{8}8-4[8:1]/2,,4,,3-1[8:1]/5-7[8:1],,3/5,,2/6,5,
{8}2h[4:1]/4,,5-2[8:1],6,7,8,1<5[4:1],,5v2[32:5],,
{8}4h[4:1],,1x,8,7,6,5/1>5[4:1],,5V38[4:1],,
{8}6,,5,5,4,6,2-5[8:1],,4-8[8:1]/2,,
{8}3,3,2,2,1/7,1/7,6,5,{16}7x,4,8,3,
{8}2b/1,,5/3,5,6/2,6,7-5[8:1]/1,,7-1[8:1]/3,,
{8}7/1<5[4:1],,3,2,2h[4:1],,5-1[8:1],,1,2,
{8}3h[4:1],,8,8,7/3,7,6/4-2[8:1]*-1[8:1],,4-6[8:1]*-7[8:1],,
{8}4w8[8:1],,4,,2-5[8:1]/6-3[8:1],,2/6,,1/7,2,
{8}3h[4:1]/4,,4,5,6,7,8/4>7[4:1],,7v4[32:5],,
{8}6h[4:1],,5x,4,3,2,1/5-8b[8:1]*-2b[8:1],,5x,,
{16}3b/4b,,3/4,,2,1,3,8,4/7,,5/6,,1b/8b,,1/8,,3,4,2,5,1/6,,7/8,,
{16}4b,5,3,4,3b,5,4,6,4b,5,3,4,{24}2bx,3,4,8bx,7,6,1bx,2,3,7bx,6,5,{32}2bx,3x,4x,5x,6x,7x,8x,1x,
{8}2/Cf,,,,,,E4,,E5,,
{8}E6,,,C,,,A1,E8,B2,B6,
{8}E4,,,C,,{16}E7,B6,{8}B5,C,E2,E4,
{8}7<3pp5[8:7],,,,,,,,,,
{8}A1/E2/A8/E8,,,C,,,A7/E7/B7,,B5/E5/B4/C,,
{8}E3/A2/B2,,,C,,,E1/E5,,E7/C/E3,,
{8}3h[8:3],,,4h[8:3],,,5xh[4:1],,6hx[4:1],,
{8}2h[8:3],,,4h[8:3],,,5hx[4:1],,7x>4q5[4:6],,
{8}Cf,,,,,,,,,,
{16},,,,,,,,6h[8:1],,4h[16:1],6h[8:1],,4h[16:1],6h[8:1],,4h[16:1],5h[16:1],4h[16:1],5h[16:1],
{16}3x,4,3,6,5,6,3,5,4,6,
{16}2,1,2,7,8,7,3,6,4,5,
{16}3x,4,3,6,5,6,2,7,1,8,
{16}2,1,2,7,8,7,2,8,1,7,
{16}2x,4,2,7,5,7,3,6,4,5,
{16}3,1,3,6,8,6,3,5,4,6,
{16}2x,4,2,7,5,7,2,8,1,7,
{16}3,1,3,6,8,6,1bx/7xb,,2xb/8bx,,
{16}3x,4,2,6,5,7,2,1,3,5,
{16}2,4,3,7,5,6,2,8,3,4,
{16}2x,1,3,7,8,6,3,4,2,8,
{16}3,1,2,6,8,7,2,1,3,5,
{16}2x,4,1,7,5,8,4,6,1,8,
{16}3,4,1,6,5,8,3,5,1,8,
{16}2,1,4,7,8,5,2,1,4,5,
{16}3,1,4,6,5bxh[8:1]/7hbx[8:1],,,2xhb[8:1]/4xhb[8:1],,,
{16}3bx-1b[32:3],,4,5,3,,7,,6-4b[32:3],8,
{16}7,,6/1,,3,,2,1,3,4,
{16}2-4b[32:3],,1,8,2,,6,,7-1b[32:3],5,
{16}6,,7/4,,2,,3,8,4,5,
{16}3-5b[32:3],,2,1,3,,7,,6-8b[32:3],4,
{16}5,,6/2,,3,,2,4,3,5,
{16}4-2b[32:3],,5,6,4,,7,,8-4b[32:3],1,
{16}7,,8/4,,2h[4:1],,E4,E5,E6,E7,
{16}2b-6b[8:1],,1,8,2,,7,,5-1b[8:1],4,
{16}6,,1/5,,2,,3,4,1,8,
{16}3b^6b[8:1],,2,1,3,,8,,7v4b[8:1],5,
{16}6,,7/4,,3,,2,1,4,5,
{32}1b,2,3,4,{16}7,5,7,4,7,3,7,2,
{32}7b,6,5,4,{16}1,5,1,6,1,7,1,8,
{32}2b,3,4,5,6,7,8,1,2,3,4,5,6,7,8,1,2,3,4,5,
{32}8b,7,6,5,4,3,2,1,8,7,6,5,4,3,2,1,8,7,6,5,
{4}1bpp5pp1>1b[4:15],,,,,
{4},,,,,
{4},,,,,
{4},,,6,6h[4:1],
{8}1-5[8:1],,,7-4V61[8:3],,,3,,3h[4:1],,
{8}8-4[8:1],,,2-5V31[8:3],,,7,,7h[4:1],,
{8}2-6[8:1],,,8-5-3-7[8:3],,,2,,2h[4:1],,
{16}6-1[8:1],,,,,,4V25-1[8:3],,,,,,8,,,,7h[8:1],,8,8,
{8}6^1[8:1],5,4,3^6[8:1],2,1,8-4[8:1],5-7[8:1],8,5,
{8}4hx[4:1],6,6,3hx[4:1],5,5,2/4,3,4,2,
{8}8^5[8:1],1,2,3^8[8:1],4,5,6-8[8:1],1-5[8:1],6,1,
{8}6hx[8:1],4,4,7hx[8:1],5,5,8/6,7,5,6,
{8}3^8[8:1],4,5,6^3[8:1],7,8,1-5[8:1],4-2[8:1],1,4,
{8}5hx[4:1],3,3,6hx[4:1],4,4,7/5,6,5,7,
{8}1^4[8:1],8,7,6^1[8:1],5,4,3-1[8:1],8-4[8:1],3,8,
{8}3hx[8:1],5,5,2hx[8:1],4,4,{16}1/8,,3,5,1-5[8:1],7,3,5,
{32}1b,B1,Cf,B5,,,,,
E
