&title=四月の暴風雨
&artist=cubesato
&des=えども~ん
&wholebpm=79
&first=0
&lv_7=狂
&inote_7=
(79)
{1},
{16}3v8[16:1]/4,2,5,2,3/5<2[8:1],4,1,2,35,,,,
1-6[16:1]/2,3/4-8[16:1],,1,4,,,,
7/8-3[16:1],6/5-1[16:1],7,8,5,,,,7h[16:1],5h[16:1],4h[16:1],2,
{16}3/8-4[16:1],{32}2,1,{16}2,7,
{16}7-3[16:1]/8,{32}6,5,{16}6,4,
{16}27,{32}1,8,{16}1,18,
{16}27,34,45,56,
{16}1-5[16:1]/2,{32}3,4,{16}3,25,
{16}1-6[16:1]/8,{32}7,6,{16}7,85,
{16}12,{32}3,4,{16}3,25,
{32}1,8,3,6,45,36,27,81,
{16}2b-6[16:1]/7b,,5-7[16:1]/3,,2/4>6[4:1],4,5/1p5[16:1],,4,,,,4^1[16:1],4,,6,4q5[8:1]/5,,6,,8^3[16:1]/4,7,6-2[16:1],,8w4[8:1],,6,,8,,,,
{32}2-6[8:1]/8,3,4,5,6-2[8:1]/1,5,4,3,5>5[4:1]/2,6,7,8,1,8,7,6,{4}5w1[8:1],,
{32}7-3[8:1]/1,6,5,4,3-7[8:1]/8,4,5,6,4<4[4:1]/7,3,2,1,8,1,2,3,{4}4w8[8:1],,
{16}25,{32}3,4,{16}3,25,
{16}74,{32}6,5,{16}6,74,
{16}25,{32}3,4,{16}3,25,
{16}74,{32}6,5,{16}6,74,
{16}38,{32}2,1,{16}2,38,
{16}61,{32}7,8,{16}7,61,
{16}38,{32}2,1,{16}2,38,
{32}1,1,3,3,5,5,7,7,
{16}8-4[16:1]/2,6,5,{32}2,2,
{16}8/1-5[16:1],3,4,{32}7,7,
{16}8-4[16:1]/1,6,5,{32}2,2,
{16}8/1-5[16:1],3,4,{32}7,7,
{16}8-4[16:1]/1,6,5,{32}2,2,
{16}81,3,5,{32}7,7,
{32}2,8,4,6,1,7,3,5,{64}1,2,3,4,5,6,7,8,{8}15,
{16}1-5[16:1]/7,3,4,{32}7,7,
{16}1/8-4[16:1],6,5,{32}2,2,
{16}1-5[16:1]/8,3,4,{32}7,7,
{16}1/8-4[16:1],6,5,{32}2,2,
{16}1-5[16:1]/8,3,4,{32}7,7,
{16}18,6,4,{32}2,2,
{32}7,1,5,3,8,2,6,4,{64}8,7,6,5,4,3,2,1,{8}84,
{16}7^4[16:1]/2,6,3,{32}2,2,
{16}7/1-5[16:1],3,5,{32}7,7,
{16}8-4[16:1]/1,6,5,{32}2,2,
{16}8/2^5[16:1],3,6,{32}7,7,
{16}8-4[16:1]/2,6,4,{32}2,2,
{16}81,3,5,{32}7,7,
{32}2,1,4,6,8,7,3,5,{64}1,8,7,6,5,4,3,2,{8}15,
{16}2^5[16:1]/7,3,6,{32}7,7,
{16}2/8-4[16:1],6,4,{32}2,2,
{16}1-5[16:1]/8,3,4,{32}7,7,
{16}1/7^4[16:1],6,3,{32}2,2,
{16}1-5[16:1]/7,3,5,{32}7,7,
{16}18,6,4,{32}2,2,
{32}7,8,5,3,1,2,6,4,{64}8,1,2,3,4,5,6,7,{8}84,
{16}12,{32}3,4,{16}3^8[16:1],{32}7,1,{16}7-2[16:1],{32}7,6,{16}53,{32}4,5,
{16}6,{32}6,5,{16}6^1[16:1],{32}2,8,{16}2-7[16:1],{32}2,3,{16}46,{32}5,4,
{16}3,{32}2,1,{16}2^5[16:1],{32}6,5,{16}6-3[16:1],{32}6,7,{16}82,{32}1,8,
{16}7,{32}7,8,{16}7^4[16:1],{32}3,4,{16}3-6[16:1],{32}3,2,{16}17,{32}8,1,
{16}2,{32}1,8,{16}1^4[16:1],{32}5,3,{16}5-2[16:1],{32}5,6,{16}71,{32}8,7,
{16}6,{32}7,8,{16}7^4[16:1],{32}3,4,{16}3-6[16:1],{32}3,2,{16}17,{32}8,1,
{16}2,{32}3,4,{16}3^8[16:1],{32}7,8,{16}7-2[16:1],{32}7,6,{16}35,{32}4,5,
{16}6,{32}5,4,{16}5^8[16:1],{32}1,7,{16}1,{32}1,2,{16}35,{32}4,3,
{16}2,{32}7,1,{16}8-5[16:1],{32}1,7,{16}8-3[16:1],{32}6,1,{16}8,{32}2,7,
{16}8,{32}8,2,{16}1-6[16:1],{32}2,8,{16}1-4[16:1],{32}7,2,{16}1,{32}3,8,
{16}1,{32}7,1,{16}8-5[16:1],{32}1,7,{16}8-3[16:1],{32}6,1,{16}8,{32}2,7,
{16}8,{32}8,2,{16}1-6[16:1],{32}2,8,{16}1-4[16:1],{32}7,2,{16}1,{32}3,8,
{16}1,{32}6,4,{16}5-8[16:1],{32}4,6,{16}5-2[16:1],{32}7,4,{16}5,{32}3,6,
{16}5,{32}5,3,{16}4-7[16:1],{32}3,5,{16}4-1[16:1],{32}6,3,{16}4,{32}2,5,
{16}4,{32}6,4,{16}5-8[16:1],{32}4,6,{16}5-2[16:1],{32}7,4,{16}5,{32}3,6,
{16}5,{32}5,3,{16}4-7[16:1],{32}3,5,{16}4-1[16:1],{32}6,3,{16}4,{32}2,5,
{32}4,,,8-4[6:1],,,8,,
{32}8,,,8,,,8,,
{32}8^5[8:1],,,8,,,8-3[6:1],,
{32}8,,,8,,,8-4[6:1],,
{32}8,,,8,,,8-5[8:1],,
{32}8,,,8^3[6:1],,,8,,
{32}8,,,8,,,8,,
{32}8-3[6:1],,,8,,,8,,
{32}8,,,8-4[8:1],,,8,,
{32}8,,,8>4[8:1],,,8,,
{32}8^5[16:1],,,8,,,8-3[16:1],,
{32}8,,,8,,,8-4[16:1],,
{32}8,,,8,,,8-5[16:1],,
{32}8,,,8^3[16:1],,,8,,
{32}8w4[8:1],,,8,,,8,,
{4}8,
{32}2,5,8,5,6,5,4,5,3,5,7,5,1,5,6,5,1-7[16:1],5,7-3[16:1],5,3-1[16:1],5,1-5[16:1],5,1,,6,,6,,6,,
{32}7,4,1,4,3,4,5,4,6,4,2,4,8,4,3,4,8^2[16:1],4,2-6[16:1],4,6^8[16:1],4,8-4[16:1],4,8,,3,,3,,3,,
{16}1-5[16:1],{32}7,8,{16}7,2,
{16}2-6[16:1]/1,{32}3,4,{16}3,5,
{16}72,{32}8,1,{16}8,81,
{16}72,65,54,43,
{16}8-4[16:1]/7,{32}6,5,{16}6,74,
{16}8-3[16:1]/1,{32}2,3,{16}2,14,
{16}87,{32}6,5,{16}6,74,
{32}8,1,6,3,54,63,72,18,
{16}7b-3[16:1]/2b,,4-2[16:1]/6,,7/5<3[4:1],5,4/8q4[16:1],,5,,,,5^8[16:1],5,,3,5p4[8:1]/4,,3,,1^6[16:1]/5,2,3-7[16:1],,1w5[8:1],,3,,1,,,,
{32}3-7[8:1]/5,2,1,8,7-3[8:1]/4,8,1,2,8>8[4:1]/3,7,6,5,4,5,6,7,{4}8w4[8:1],,
{32}6-2[8:1]/4,7,8,1,2-6[8:1]/5,1,8,7,1<1[4:1]/6,2,3,4,5,4,3,2,{4}1w5[8:1],,
{1}1w5[1:2],,,
