&title=PAIN
&artist=DUSTCELL
&first=1.67
&des=痛み、記憶
&lv_5=13+
&inote_1=
&inote_5=(110)
{36}E3,B3,B4,,,,,,,
{32}7x/5xh[8:1],,,,7,,,,5h[12:1],,,,7-4[8:1],,,,3h[8:1],,,,,,,,2qq7[4:2],,,,,,,,6xh[12:1],,,,6,,,,5xh[12:1],,,,5,,,,4xv5[8:1],,,,4x-2[8:1],,,,,,,,,,,,
{16}6-3[8:1],,7,,8-4[8:1],,7,,6pp5[4:1]/8,,,,3xh[8:1],,,,3x,,4x/6x,,4x/6x,,7V15[4:1],,3v2[8:1],,,,,,,,
{24}2x/4xh[8:1],,,2,,,4h[12:1],,,2-5[8:1],,,6h[8:1],,,,,,7pp4[4:2],,,,,,4xh[12:1],,,4,,,3xh[12:1],,,3,,,1xv2[8:1],,,1x-7[8:1],,,,,,,,,
{16}3-6[8:1],,2,,1-5[8:1],,2,,3qq4[4:1]/1,,,,6xh[8:1],,,,6x,,5x/7x,,5x/7x,,8qq1[4:1],,4V26[4:1],,,,,,,,
{4}1v8[8:1],2v3[8:1],5v4[8:1],6v7[8:1],1v8[8:1],2v3[8:1],5v4[8:1],6xv7[8:1],
1v2[8:1],5v4[8:1],8v7[8:1],3v2[8:1],5v4[8:1],4v5[8:1],4V63[4:1],4,
{4}1-4[8:1],1q6[8:1]/A8/A7/D8,1-4-1[4:1]/A3/A2/D3,1x,
{4}8-5[8:1],8p3[8:1]/A1/A2/D2,8-5-8[4:1]/A6/A7/D7,8x,
{4}2xV48[6:1],6xV84[6:1],4x-8-2[6:1],8xv6[8:1],3x-5v4[4:1],7xp6[4:1],,
{36}E3,B3,B4,,,,,,,
{4}1>5>1[4:2],5<1<5[4:2],,,3>8>3[4:2],8<5<8[4:2],,,4>2[8:1],4-6-4[4:1],2-6[8:1],2-6-2[4:2]*-6-2[4:2],,,Chf[4:2],2>2[4:1],
{4}2bqq2>2b[4:2],,,
{4}7<7[4:1],
{4}7bpp7<7b[4:2]/Cf,,,
{8}3,8/1-5-1[4:1]*<7[8:1],,1pp4[8:3],,,,,5,6,7p4[8:3]/1,,7,1-5[8:1],,1,,
{32}2bx/1xh[8:4],3,4,5,6V42[4:1],,,,,,,,,,,,,,,,
{8}1pp8[4:1],,1,5pp5[4:1],,5qq5[4:1],,,,,7,8qq4qq5[4:2],1,2h[4:2]/8,,,,,
1-5[8:1],5-2[8:1],1,,8-4[8:1],7pp3[4:1],8,7,,,
{24}3/8b,,2,1,,4,5,,2,1-3[8:1],,4,5-7[8:1],,,1-5[8:1],,,5,,,1,,,
{24},,7,8,,5,4,,7,8-6[8:1],,5,4-2[8:1],,,8-4[8:1],,,4,,,8,,,
{24},,2,4,,1,5,,8,6,,6,4,,7,3,,8,2,,2,4,,1,{4}5-1[8:1],1<6[8:1]/5>2[8:1],1q2[4:1]/5<2[4:1],15,
{24},,3,4,,1,8,,3,4-2[8:1],,1,8-6[8:1],,,4-8[8:1],,,8,,,4,,,
{24},,6,5,,8,1,,6,5-7[8:1],,8,1-3[8:1],,,5-1[8:1],,,1,,,5,,,
{24},,3,1,,4,8,,5,7,,7,1,,6,2,,5,3,,3,1,,4,
{8}8-4[8:1],4-8[8:1],8v5b[8:1]*-2[8:1],,,,
{32}2,1,8,7,6,5,4,3,{4}2b>5[32:87]<6[32:29]<2[32:116]*>5[32:87]v6[32:29]<2[32:116],,,,
{16}B2,,B3,B2,,,B3,,,,,,,,,,B2,,B3,B2,,,B3,,,,,,,,,,,,,,,,,,,,,,,,,,B7,,B8,B7,,,B8,,,,,,,,,,B7,,B8,B7,,,B8,,,,,,,,,,B2,,B1,B2,,,B1,,,,,,,,,,B2,,B1,B2,,,B1,,,,,,
{8}6xh,,
{4}2v8v2[4:2],8V64[4:1],,,6<1<6[4:2],1q5p1[4:2],,,
4-1[4:1]-6[4:1],1v8v2[4:2],,,5<1<5[4:2],1>5>1[4:2],,,
{4}8-6[8:1],7-5[8:1],6V47[4:1],4,1-3[8:1],2-4[8:1],3V52[4:1],5x,
7s3[4:1],3V51[4:1],1-7[8:1]*-5[8:1],,
2-4[8:1],2>5[8:1],2-5<6[6:1],,
{4}8-5[8:1],8p3[8:1]/C,8-5-8[4:1]/D7,8x,
{4}1-4[8:1],1q6[8:1]/C,1-4-1[4:1]/D3,1x,
{4}7xv8[8:1],1xv2[8:1],5-1[8:1],7x-3-7[4:2]*-3-7[4:2],,,Chf[4:2],7-5-3-1-7[4:1],
{4}7bpp6-4-2-8b[4:2],,,
{4}2-4-6-8-2[4:1],
{4}2bqq3-5-7-1b[4:2]/Cf,,,
{8}6,1-6[8:1]/8-4-8[4:1],,8pp6[8:3]/1,,,,,4,37,2q5[8:3]/8,,2,8-4[8:1],,8,,
{32}7bx/8xh[8:4],6,5,4,3V57[4:1],,,,,,,,,,,,,,,,
{8}8qq1[4:1],,8,4qq4[4:1],,4pp4[4:1],,,,,2,1pp5pp4[4:2],8,7h[4:2]/1,,,,,
8-4[8:1],4-8[8:1],8,,1-5[8:1],2qq6[4:1],1,2,,,
{24}6/1b,,7,8,,5,4,,7,8-4[8:1],,5,4-2[8:1]*-8[8:1],,,8-6[8:1],,,,,,,,,
{24},,2,1,,4,5,,2,1-5[8:1],,4,5-7[8:1]*-1[8:1],,,1-3[8:1],,,,,,,,,
{24},,7,5,,8,4,,1,3,,3,5,,2,6,,1,7,,7,5,,8,{4}4-8[8:1],8>3[8:1]/4<7[8:1],8pp7[4:1]/4pp3[4:1],84,
{24},,6,5,,8,1,,6,5-1[8:1],,8,1-3[8:1]*-5[8:1],,,5-7[8:1],,,,,,,,,
{24},,3,4,,1,8,,3,4-8[8:1],,1,8-6[8:1]*-4[8:1],,,4-2[8:1],,,,,,,,,
{24},,6,8,,5,1,,4,2,,2,8,,3,7,,4,6,,6,8,,5,
{8}1-5[8:1],5qq2[4:1]*pp7[8:1],1,,,,
{32}7,8,1,2,3,4,5,6,
{4}7b-2[4:13],,,,{16}4,,5,4,,,3,,{4},,{16}5,,4,5,,,6,,{4},,{16}4,,5,4,,,3,,,,,,2x-7[4:13],,,,{16}5,,4,5,,,6,,{4},,{16}4,,5,4,,,3,,{4},,{16}5,,4,5,,,6,,{4},,{16}4,,5,4,,,3,,
{16}2b,,,8b,
{36}E3,B3,B4,{72},,,{8}6bs2-8-3-7-4[8:9],
