&title=ルミナス
&artist=ClariS
&first=0
&des=Luvlily
&lv_6=12+
&inote_6=(173){1},
{16}6,,,,7,,,,3,,,,2,,,,
{16}8,,,,1,,8,,,,2b/7b,,,,,,
{16},,,,,,,,,,,,,,3,2,
{16}1qq4[2:2],,,,,,,,,,,,,,,,
{16},,,,,,,,,,,,,,8,7,
{16}6qq1[2:2],,,,,,,,,,,,,,,,
{16},,,,,,,,,,5,,4,,3,,
{16}2<5[4:3],,,,,,,,,,,,,,1,2,
{16}3pp8[2:2],,,,,,,,8,,,,,,,,
{16}6p4[4:3],,,,,,,,,,,,,,,,
{16}3^6[2:1],,,,,,,,,,,,,,,,
{16}8h[1:1],,,,,,,,,,,,,,,,
{16}1h[1:1],,,,,,,,,,,,,,,,
{16}2q6[2:1],,,,,,,,,,,,,,,,
{16}6q2[2:1],,,,,,,,,,,,,,,,
{16}3^6[2:1]/6,,,,,,,,,,,,,,,,
{16}7^2[2:1]/2,,,,,,,,,,,,,,,,
{16}4pp1[2:3]/8pp5[2:3],,,,,,,,,,,,,,,,
{16},,,,,,,,,,,,,,,,
{16}2^5[2:1],,,,2,,,,2,,,,2,,,,
{16}5^8[2:1],,,,5,,,,5,,,,5,,,,
{16}8^3[2:1],,,,8,,,,8,,,,8,,,,
{16}3^6[2:1],,,,3,,,,3,,,,3,,,,
{16}6^1[2:1],,,,6,,,,6,,,,6,,,,
{16}1^4[2:1],,,,1,,,,1,,,,1,,,,
{16}4,,,,6,,5-2[8:1]/7,,,,8,,8,,3,4,
{16}2-7[8:1],,,,7,,6-1[8:1],,,,2,,2,,81,27,
{16}3V51[4:1]/6,,,,1,,,,8,,7,,62,,,,
{16}5V37[4:1]/3,,,,7,,,,8,,1,,26,,,,
{16}3V15[4:1]/8,,,,5,,,,6,,7,,84,,,,
{16}5V73[4:1]/7,,,,3,,,,2,,1,,8^3[8:1],,7,,
{16}6h[4:1],,,,5-1[8:1],,4,4,5,,,,1^6[8:1],,,,
{16}3h[4:1],,,,4-8[8:1],,5,5,4,,,,8^3[8:1],,,,
{16}6h[4:1],,,,5-1[8:1],,3,3,5,,,,1^6[8:1],,,,
{16}6,,5,,4,,3^6[8:1]/2,,,,1,,2^7[8:1],,,,
{16}6V84[4:1],,,,4V61[4:1],,,,1,,2,,3,,,,
{16}2V48[4:1],,,,8V25[4:1],,,,5,,6,,7,,,,
{16}1V73[4:1],,,,3V58[4:1],,,,8,,1,,2,,,,
{16}18,,3,4,,6,5,,45,,36,,2b/7b,,,,
{16}57,,6,,48,,2,2,3,,15,,7,,,,
{16}13,,2,,84,,6,6,7,,51,,3,,,,
{16}1-5[8:3]/8,,,,,,3,,4,,,,45,,,,
{16}6h[4:1],,,,,,,,{32}1,2,3,4,5,6,7,8,1,2,3,4,5,6,7,8,
{16}1bpp3[8:1]*qq7[8:1],,,,1,,,,2/5^2[8:1],,,,51,,7^2[8:1],,
{16},,76,,,,5,,4^1[8:1]/6^1[8:1],,,,46,,,,
{16}8^3[8:1]/2,,,,84,,6qq3[8:5],,,,1,,8,,7^2[8:1],,
{16},,7,,,,,,1/4^1[8:1],,8,,7,,6,,
{16}1-6[8:1]/5,,,,6^3[8:1],,,,6/3-8[8:1],,,,8^5[8:1],,,,
{16}8/5-2[8:1],,,,2^7[8:1],,,,2/7-4[8:1],,,,4^1[8:1],,,,
{16}4/1b,,,,18,,1/8-4[8:1],,,,4qq4[8:3]*pp4[8:3],,,,,,
{16},,,,,,,,{32}8,7,6,5,4,3,2,1,8,7,6,5,4,3,2,1,
{16}8b^5[8:1],,,,8/4-8[8:1],,,,4^7[8:1]/2,,,,48,,2^7[8:1],,
{16},,2-6[8:1]/3,,,,52,,3^6[8:1]*-8[8:1],,,,3,,,,
{16}1/7V13[16:3],,,,37,,5qq2[8:5],,,,6,,7,,8^5[8:1],,
{16},,8,,,,,,7/3^8[8:1],,8,,7,,6,,
{16}8-5[8:1]/5,,,,87,,1>5[8:1]*<5[8:1],,,,1,,,,,,
{16}4-1[8:1]/7,,,,43,,5<1[8:1]*>1[8:1],,,,5,,,,,,
{16}1^4[8:1],,,,18,,6^1[8:1],,,,65,,3^6[8:1],,,,
{16}3/1^6[8:1],,,,15,,4^1[8:1],,,,4/8,,7^4[8:1],,,,
{16}2-6[8:1]/7,,,,23,,1-4[8:1],,,,12,,8qq5[8:4],,,,
{16},,,,3,,,,2,,,,1-5[8:1],,,,
{16}1^6[8:1]/2,,,,16,,3-7[8:1],,,,23,,4qq1[8:4],,,,
{16},,,,,,,,8,7,6,5,4,3,2,1,
{16}8z4[2:1]/4,,4,,3,,3,,2,,2,,1,,1,,
{16}1s5[2:1]/5,,5,,6,,6,,7,,7,,8>4[2:1]*<4[2:1],,,,
{16},,,,,,,,,,,,,,,,
{16}2<6[2:1]*>6[2:1],,,,,,,,,,,,,,,,
{16}7,6,5<5[4:11],,,,,,,,,,,,,,
{16},,,,,,,,,,,,,,,,
{16},,,,,,,,,,,,,{24}8b,,,
{16},,,,,,,,,,,,,,,,
{16},,,,,,,,,,,,,,,,
