&title=馬→ウマ→UMA!?
&artist=nogi
&first=0
&des=輝夜
&lv_5=13
&lv_6=14+
&inote_5=(160)
{1},,
{4}1pp4[2:3]/5pp8[2:3],,,,
{1},
{4}3pp6[2:3]/7pp2[2:3],,,,
{1},
{16}46,,,5,,,4,,35,,,4,,,5,,
{16}26,,,1,,,8,,17,,,8,,,1,,
{16}27,,,6,,,5,,47,,,8,,,1,,
{4}27,B3/B4/B5/B6,{16}B1,B6,B4,B8,{4}C,
{8}1^4[8:1],8,7,6,5-8[8:1],4,3,2,
{4}1q5[4:1],5qq3[4:1],6,E1/E8/B7/B8,
{8}8^5[8:1],1,2,3,4-1[8:1],5,6,7,
{8}18,2,34,5,16,,B2/B3,B6/B7,
{8}4^1[8:1],5,6,7,8-5[8:1],1,2,3,
{4}4p8[4:1],8pp2[4:1],7,E5/E6/B6/B5,
{8}34,2,56,7,18,2,36,45,
{16}B5/B6/E6/E7,,,B4/B3/E4/E3,,,C,,{4}1-5b[8:1]/8-4b[8:1],Cf,
{16}6,5,6,,6,5,7,,7,5,7,,7,5,6,,
{16}6,5,6,,6,5,7,,{8}7-2[8:1],68,7,,
{16}3,4,3,,3,4,2,,2,4,2,,2,4,3,,
{8}34,45,5-1[8:1]/6-2[8:1],47,5b/6b,,,,
{16}7,8,6,,7,8,6,,6,1,5,,6,2,5,,
{16}7,1,6,,7,8,6,,{8}5-8[8:1],46,5,,
{16}2,1,3,,2,1,3,,3,8,4,,3,7,4,,
{8}5x/6x,1x/2x,3x/4x,7x/8x,B2/B3/E3/B6/E7/B7/Cf,,,,
{16}3,1,4,,3,1,4,,3,8,4,,3,8,4,,
{16}5,7,4,,5,7,4,,{8}5x^8[8:1],4x/6x,2x,,
{16}2,1,2,,2,8,2,,3,7,3,,2,6,2,,
{8}1-4[8:1],8,7-3[8:1],6,Cf,B1/B2,B7/B8,,
{16}6,8,5,,6,8,5,,6,1,5,,6,1,5,,
{16}4,2,5,,4,2,5,,{8}4x^1[8:1],5x/3x,7x,,
{16}7,8,6,,2,4,3,,6,5,7,,2,1,3,,
{4}4-8[8:1],4x<3[1:3],,,
{1},,,
{16}6h[16:3]/5,,,5,{8}6,4,47,6,15,2,
{16}3h[16:3]/4,,,4,{8}3,5,52,3,84,7,
{16}6h[16:3]/5,,,5,{8}6,4,47,6,15,2,
{16}3h[16:3]/4,,,4,{8}3,5,5/2-6[8:1],3,,,
{16}5h[16:3],,,4h[16:3],,,5,4,6h[16:3],,,5h[16:3],,,6,5,
{8}7-3[8:1],8,1w5[8:1],,,,,,
{8}4-1[8:1],6,7,6,5^8[8:1],2,3,2,
{8}1-5[8:1],7-5[8:1],1^4[8:1],7,1,,,,
{16}16,,7,8,,8,1,,12,,3,4,,5,4,,
{8}3x/6x,B6/B7,B1/B8,B2/B3,B4/B5/Cf,,,,
{8}78,78,16,16,{16}2,5,2,5,3,6,3,6,
{16}4bx/B6/B7,,,5bx/B3/B2,,,1bx/B4/B5,,{4},,
{16}2,1,2,,2,1,2,,2,8,2,,2,7,2,,
{16}2,6,2,,2,5,2,,{8}3-6[8:1],24,3,,
{16}6,5,6,,6,5,6,,6,7,6,,6,8,6,,
{8}16,27,3-6b[8:1]/8-5b[8:1],12,3b/8b,,,,
{16}7,8,7,,7,8,7,,7,1,7,,7,2,7,,
{16}7,3,7,,7,4,7,,{8}6-3[8:1],75,6,,
{16}3,4,3,,3,4,3,,3,2,3,,3,1,3,,
{8}1x/2x,7x/8x,6x/5x,3x/4x,B2/B3/E3/B6/E7/B7/Cf,,,,
{4}2>6<4[1:1],,B6/B7/E7/E6,,
{4}4<8>6[1:1],,B8/B1/E1/E8,,
{4}6<2>8[1:1],,B4/B5/E5,,
{4}8w4[4:1],,,,
{4}7<3>5[1:1],,B3/B2/E3/E4,,
{4}5>1<3[1:1],,B1/B8/E1/E2,,
{4}2h[4:3],,7h[4:1],,
{8}24,3,5,6,4/7^4[8:1],8,3,,
{8}4/7^4[8:1],8,3,,5/1^4[8:1],8,6,,
{8}75,6,4,3,5/2^5[8:1],1,6,,
{8}5/2^5[8:1],1,6,,8b/4b,2b,1b/5b,7b,
{8}B3/B4,B5/B6,2,7,1^4[8:1]/7,8,6,,
{8}1^4[8:1]/7,8,6,,8^5[8:1]/2,1,3,,
{8}B3/B4,B5/B6,Ch[8:1],,B7/B8,B1/B2,Ch[8:1],,
{8}6,3,3,5,5,4,4,,
{16}3h[16:3],,,4h[16:3],,,2,,2h[16:3],,,4h[16:3],,,1,,
{8}8,7,1-5[8:1],2,,,,,
{16}6h[16:3],,,5h[16:3],,,7,,7h[16:3],,,5h[16:3],,,8,,
{8}1,2,8-4[8:1],7,,,,,
{16}2h[16:3],,,4h[16:3],,,3,,5/4h[16:3],,,6h[16:3],,,5,,
{16}5/7h[16:3],,,5h[16:3],,,6,,{4}4-8[8:1]/5-1[8:1],,
{8}17,2,28,7,{16}3,6,4,5,3,6,4,5,
{4}3bx,2bx,1bx-5b[8:1],,
{2}B1/B2/E2/6,B5/B6/E6/2,
{2}B4/B3/E4/7,B8/B7/E8/3,
{2}B3/B4/E4/8,B7/B8/E8/4,
{2}B6/B5/E6/1,B2/B1/E2/5,
{2}B1/B2/E2/6h[4:1],B5/B6/E6/2h[4:1],
{2}B4/B3/E4/7h[4:1],B8/B7/E8/3h[4:1],
{2}2^5q6<2[4:3],,
{4}C,B3/B4/E4/B7/B8/E8,1bxv4b[8:1]/5bxv8b[8:1],,
{16}7,8,6,,3,4,2,,7,8,6,,3,4,1,,
{16}7,8,6,,4,5,3,,{8}1-5[8:1]/2-6[8:1],38,1b/2b,,
{16}7,5,6,,3,4,2,,7,5,6,,3,4,1,,
{8}78,1,2/5-1[8:1],6,57,B7/E8,B7/E8,,
{16}3,4,2,,7,5,6,,3,4,2,,7,5,6,,
{16}3,4,2,,8,1,7,,{8}5-1[8:1]/6-2[8:1],74,5b/6b,,
{16}2,4,3,,6,5,7,,2,4,3,,26,,,,
{8}28,3,1-5[8:1]/7,6,18,,,,
&inote_6=(160)
{1},,
{4}1>8[2:6]/8<1[2:6],,,,
{1},,,
{16}4/5h[16:5],,,4,,,5,4,6h[16:5],,,4,,,6,5,
{16}7h[16:5],,,5,,,7,5,8-4[16:2],,,,,,,,
{16}5/4h[16:5],,,5,,,4,5,3h[16:5],,,5,,,3,4,
{4}25,47,{16}1,1,1,1,{4}1b,
{8}2^4q6[8:4],1,8,7,6,7,8,7,
{4}5^2[8:1]/6,5/8^5[8:1],18,B1/B2/C/B5/B6,
{8}7^5p3[8:4],8,1,2,3,2,1,2,
{4}4^7[8:1]/3,4/1^4[8:1],81,B8/B7/C/B4/B3,
{16}25,,3,4,,,56,,47,,6,5,,,45,,
{8}3,2,1-5[8:1]/8,7,6,,8b,,
{16}7,5,7,5,8,4,8,4,{32}7,6,5,4,3,2,1,8,7,6,5,4,3,2,1,8,
{16}3b/7b,,,1b/5b,,,2b/B7/B8,,{4}B1/B2/6b^3[8:1],,
{16}2,8,1,1,2,8,1,1,2,8,1,1,2,8,1,1,
{16}2,8,3,7,4,6,5,5,{8}5-2[8:1]*-8[8:1],46,5,,
{16}7,1,8,8,7,1,8,8,7,1,8,8,7,1,8,8,
{8}8,17,2-5[8:1]/6-1[8:1],35,26,,B1/B2/B7/B8,,
{16}3,4,4,4,3,5,4,4,3,4,4,4,3,5,4,4,
{16}2,4,4,4,3,5,4,4,{8}4-7[8:1]*-1[8:1],53,4,,
{16}6,5,5,5,6,4,5,5,6,5,5,5,6,4,5,5,
{8}5b,4b/6b,3bV51[4:1]/5bV71[4:1],2b/4b,3b/5b,,,,
{16}8,2,1,3,8,2,1,1,8,2,7,1,8,8,7,1,
{16}8,2,1,3,8,2,1,1,{8}1^4[8:1]*^6[8:1],28,1,,
{16}3,5,4,4,3,5,4,4,3,5,4,4,3,5,4,4,
{8}4,35,2-7[8:1]/6-3[8:1],48,2b/6b,,,,
{16}1,7,8,6,1,7,8,8,1,7,2,8,1,1,2,8,
{16}1,7,8,6,1,7,8,8,{8}8^5[8:1]*^3[8:1],71,8,,
{16}6,4,5,5,6,4,5,5,6,4,5,5,6,4,5,5,
{4}5-1[8:1],5x>6[1:3],,,
{1},,
{4},,{8}B3/E4,B6/E6,B2/E2,B7/E8,
{16}2h[16:3],,,1,2,,38,,7,8,,8,7,8,6,,
{16}7h[16:3]/8,,,8,7,,61,,2,1,,1,2,1,3,,
{16}2h[16:3]/1,,,1,2,,38,,7,8,,8,7,8,6,,
{16}7h[16:3]/8,,,8,7,,61,,2,1,2,1,,,,,
{16}4,,,4,,,5,4,5,,,5,,,3,4,
{8}3^6[8:1],24,1-5[8:1],,8,,,,
{16}47,,7,5,7,,48,,12,,2,4,2,,15,,
{8}7/8-2[8:1],8-6[8:1],8-4[8:1],,,,,,
{16}83,,2,4,2,,1,,78,,7,5,7,,8,,
{8}2-4[8:1],1-5[8:1],2-6[8:1],1,2,,7,6,
{8}35,35,26,26,{16}1,7,1,7,8,8,8,8,
{16}8b,,,1b/7b,,,2b/6b,,{8},,Cf,,
{16}2,1,2,1,2,3,2,3,2,1,2,1,2,2,2,2,
{16}2,1,2,1,2,8,2,8,{8}1^4[8:1]/7,68,15,,
{16}7,5,7,5,7,6,7,6,7,7,7,7,7,8,7,8,
{8}1b/6b,3b/4b,2b/8b,5b/6b,4b/8b,,{48}4b/8b,37,26,{16}15,{8},
{16}3,5,4,4,3,5,4,6,3,5,4,4,3,5,4,6,
{16}3,5,4,4,3,5,4,6,{8}3^6[8:1]/7,28,37,,
{16}7,8,8,8,7,1,8,2,7,8,8,8,7,1,8,2,
{8}1b,2b/8b,3b/7b,4b/6b,5bw1b[8:1],,,,
{8}28,{16}3,4,3,,{8}17,2-5[8:1]/6-8[8:1],35,26,,
{8}71,{16}6,5,6,,{8}82,7-4[8:1]/3-1[8:1],64,73,,
{8}28,{16}3,4,3,,{8}17,2-5[8:1]/6-8[8:1],35,26,,
{8}71,{16}6,5,6,,{8}82,7/1s5[8:1],,,,
{8}46,{16}7,8,7,,{8}18,4-2[8:1]/6-1[8:1],28,46,,
{8}53,{16}2,1,2,,{8}81,5-7[8:1]/3-8[8:1],71,53,,
{16}1,6,2,7,3,8,4,1,{32}5,6,7,8,1,2,3,4,{4}5/Ch[384:1],
{8}17,{16}7,8,7,,{8}17,2-5[8:1],3,6,,
{8}7-4[8:1],6,3,,1-5[8:1],2,6,,
{8}4,{16}3,5,3,,{8}34,2-5[8:1],3,6,,
{8}7-4[8:1],6,3,,17,1,28,8,
{8}B2/B3,B6/B7,1,8,7-4[8:1],6,3,,
{8}2-5[8:1],3,6,,8-4[8:1],7,3,,
{8}4^1[8:1]/5^8[8:1],36,,,4^1[8:1]/5^8[8:1],36,,,
{1}1pp4[2:1]/8qq5[2:1],
{16}56,,7,5,7,,56,,56,,7,5,7,,4,,
{8}48,37,26,1^4[8:1],5^8[8:1],,,,
{16}12,,3,1,3,,12,,12,,3,1,3,,8,,
{8}84,73,62,5^8[8:1],1^4[8:1],,,,
{16}7,5,7,5,6,5,6,5,7,4,7,4,6,5,6,5,
{16}7,4,7,4,6,3,6,3,5-8[8:1],2,5,2,{4}5,
{8}16,16,{16}8,7,8,7,{32}1,2,3,4,5,6,7,8,1,2,3,4,5,6,7,8,
{4}1b/B5/B6/E6f,7b/B3/B4/E4f,4b/B7/B8/E8f,,
{8}6,6,7,7,8,8,1,1,
{8}2,2,3,3,4-1[8:1],5,6,,
{8}2,2,1,1,8,8,7,7,
{8}3,6,4,5,2-6[8:1],,,,
{16}3,4,3,,4,5,4,,5,6,5,,6,7,6,,
{16}7,8,7,,8,1,8,,{8}2-5[8:1]/7-4[8:1],36,27,,
{16}3,4,2,,6,5,7,,3,4,1,,6,5,8,,
{8}48,6,2-5[8:1]/4-8[8:1],15,2b/4b,,3b/7b,,
{16}5,5,6,5,5,4,5,5,6,5,5,4,6,4,5,3,
{16}4,4,5,4,4,3,4,4,{8}4w8b[8:1],26,4b,,
{16}1,1,2,8,8,7,1,1,2,8,8,7,1,1,8,8,
{8}1b/8b,2b/7b,1b-5b[8:1]/8b-4b[8:1],3b/6b,1b/8b,,,,
{16}4,4,3,4,4,5,4,4,3,4,4,5,3,5,4,6,
{16}5,5,4,5,5,6,5,5,{8}5w1b[8:1],73,5b,,
{16}2,8,3,7,4,6,3,5,{8}2-5[8:1]/6-1[8:1],17,26,,
{8}8-3[8:1],{16}2,1,8-4[8:1],,6,7,{8}8,
