&title=ギミー!レボリューション
&artist=内田真礼「俺、ツインテールになります。」
&first=0.02
&des=最強無双のツインテール愛
&lv_5=14
&inote_5=(180)
{1},
{2},{16},,,,,,,,
{8}1b-5-1b[8:3]/5b,,,,,,,8h[4:1]/2,
{8},4,4,5-7[32:3],,2,2,4x/3hx[2:1],
{8},2,5,6h[8:3],,7,4,3h[8:3],
{8},1,4,6hb[8:3],,,1h[8:1],,
{8}1h[8:1],,1,1,{16}1x,8x,7x,6x,5x,4x,3x,2x,
{8}1bx^6[8:1],,2h[4:1],,4,3/5h[4:1],,8^3[8:1],
{8},7,7,6h[4:1]/4-8[8:1],,,,7h[4:1],
{8},1,2h[4:1]/8,,6,6q2b[8:1]*v3b[8:1],,A6f/E7/E6,
{8},A4,B2,E6,A8,,1hx[4:1],,
{8}8,,2/7,,3,3,4,3h[4:1],
{8},5,4,6h[4:1],,5,7-4[8:1]/4,,
{8}1h[4:1],,5,,2,4,3,3h[4:1],
{8},4,2-5[8:1]/5-1[8:1],,,,4/8,,
{8}6/5,,1/7,,2,2,1,2h[4:1],
{8},4,3,5h[4:1],,1,2/8h[4:1],,
{8}3,4-1[8:1],5,6,,7-3[8:1]/8,1,2,
{8},4/5-1b[8:1],3/6,2bh[4:1],,8,8,1,
{8}7/8,,2/6,4,5,5,4,6h[4:1],
{8},3,4,2h[4:1]/5,,7,8-4[8:1]/4,1,
{8}2,2,5,4,6,5,7,7h[4:1],
{8},4,8-5[8:1]/4-1[8:1],,,,2/6,,
{8}3/4,,8/2,1,7,7,8,6h[4:1],
{8},1,8,2h[4:1]/7,,4,5/3h[4:1],,
{8}6,5-8[8:1],4,3,,2-6[8:1]/1,8,7,
{8},5/4pp1b[8:3],6/3,7bh[8:3],,,,,
{8}3qq1[4:1],4pp6[4:1],,,,,,6/5,
{8},6-8[16:3]/5-3[16:3],,,,,,8b-6b[8:1]/1b-3b[8:1],
{8},8b-4b[8:1]/1b-5b[8:1],,8b^5b[8:1]/1b^4b[8:1],,,,3h[4:1],
{8},1,2/8,2/8V26[16:5],,,4,4,
{8}5h[4:1],,3,4-7[8:1]*-8b[8:1],5,,,1h[4:1]/6,
{8},3,4,5-2[8:1],6,,8,8,
{4}1h[8:1]/7h[8:1],2h[8:1]/8h[8:1],3h[8:1]/1h[8:1],2h[8:1]/4h[8:1],
{8}3/5,4,4,4,7/5,6,6,6,
{16}1/7,,1/7,,2/8,,2/8,,3,5,2,6,1,7,8bV25[4:1],,
{8},6x,6hx[4:1],,4-2[32:3],,8-4[8:1]*-6b[32:3]/4,,
{8}A8f/D1/D8,,3/5,2h[4:1],1,1-4[8:1],,1/5V73[4:1],
{8},4,2,8h[4:1],,7,7,6/5V74[16:4],
{8},4,2,1V38[16:4],,8,6,5V74[16:4],
{8},4,2,1-5b[8:1],,5,7b,,
{8}8^3[8:1]/4,,7/8,6,5-1[8:1],4,3,2V84[4:1],
{8},1,7,5h[4:1],,3,3,2^7[8:1]/4,
{8},2/7,6,5-1[8:1]/8,,5/1,2,3/8h[4:1],
{8},1,1b-3[8:1]*-4[8:1],,1b-6[8:1]*-7[8:1],,1b-5b[8:1],,
{8}1x/5x,,6/4,7h[4:1],8,8-5[8:1],,8/4V26[4:1],
{8},5,7,1h[4:1],,2,2,3/4V25[16:4],
{8},5,7,8V61[16:4],,1,3,4V25[16:4],
{8},5,7,8-4b[8:1],,4,2,1,
{8}8^3[8:1],,5-1[8:1]*-2b[8:1],,5b,,3/8,3pp6[16:5]/8,
{8},6,7,8h[4:1],,5-2[8:1],5,6x,
{8}7,8,2/1,2/1,{16}8x,7,6,5,2x,3,4,5,
{8}1b-5^4-7[8:3],,,,,3b,3bh[4:1],,
{8}5,,3,4,5,6h[4:1],,5,
{8},3/4,3h[4:1]/4,,5w1[8:1],,,,
{8}6/4,,6,5,4,3h[4:1],,4,
{8},6/5,6/5-8[8:1],,4b-1[8:1],,5b,,
{8}3/5,,3,4,5,6h[4:1],,5,
{8},3/4,3/4,2^7^2[8:3],,,,,
{8}6,,6,5,4,3h[4:1],,4,
{8},6/5,6/5,,A7/D8/A8/B8/B7,,C/B6/B5/B2/E3,,
{16}A3/B3/B4/A4f,,,,7,,8,,1,,2h[4:1],,,,4,,
{8},3,4,5pp1[8:3]/6,2v4b[8:1],,,,
{16}3x,,,,7,,6,,5,,4h[4:1],,,,8,,
{8},7/5,7/5,4-1b[8:1],5-8b[8:1],4xb,5xb,,
{16}2/7,,,,3,,4,,5,,6h[4:1],,,,1,,
{8},3/4,2h[4:1],4,4,{16}5x,4x,3x/6x,,1/8,,
{8}3x^6[8:1],2,1,8x^3[8:1],7,6,5x^8[8:1]*^3b[8:1],,
{16}5-1[8:1],,,,5/6,,8,,1x/7hxb[8:1],,,2xhb[8:1]/4xqq5<3b[16:13],,,7xb/B2/B3/E3f,,
{8},,,,,,,8h[4:1],
{16},,3,,3,,2-5[8:1]/1,,,,5,,6,,7,,
(183)
{16}8/5,,67,,8/4,,65,,8/3,,6/4,,8/2,,6/3,,
(180)
{16}8-4[8:1]/1,,6/2-5[8:1],,8x,,2x,,6xh[8:1],,,5h[8:1]/7h[8:1],,,4b/8b,,
{16},,3,4,2,5,3,4,2,5,3,5,2,4,3,5,
{16}2,4,3,4,2,5,3,4,2,,1x/6xh[8:3],,8x,1x,2x,3x,
{16}4x,,7,7,6,,1,1,8,,1/7-4[8:1],,5,,8b,,
{32}3,,,,4,,,,5,,,,6bh[8:3],,,,{48}A7,D8,A8,D1,A1,D2,A2,D3,A3,D4,A4,D5,A5f/E5/B5,,,,,,,,,,,,
{8}8-4[8:1],5,3,1-6[8:1],4,6,8x,1bx-7[32:3]/5bx-3[32:3],
{8},1/5,,2bx-5[8:1]/6xb-1[8:1],,2/6,,{24}8bx,7x,6x,
{24}5x/4x-7[8:1],,,,,,3x,,,1bx,2x,3x,4x/8x-4[8:1],,,,,,1x,,,2-5V38[8:3],,,
{8},5,6,7,7x-3[8:1]*-4b[8:1],,,,
{8}2/5,1,3/4,2,4/5,8,6/4,7^4[8:1],
{24}7,,,4,,,3,,,1-5[8:1],,,1,,,5,,,7,,,8x/4x,,,
{16}7,,1/5,,3,,7/5,,6,,2/4,,3,,6/5,,
{16}4x,6,4,1,4,6,4,1,4x,6,3,6,2,6,1,6,
{32}A8f,B8,C,B4,A4,,,,,,,,,,,,,,,,,,,,,,,,,,,,
{1},
{1},
{1},
{12}3x,4,3,5x,4,5,3x,4,2,6x,5,7,
{8}1b>6[8:3],,,,E7/B6,,,8<3[8:3],
{8},1,1,,E3/B3,,2,4,
{4}3h[8:1],4h[8:1]/3h[8:1],5h[8:1],4h[8:1]/5h[8:1],
{8}6/5,6,6/8,6,7/4,7,7/1,7,
{16}2/8,,1/3,,2/4,,3/5,,4,6,3,7,2,8,1b-5-1[4:1],,
{16},,5,,6,,7,,8/2h[16:3],,,3h[16:3],,,4,,
{8}5/6,7,5/6,4,5/6,8,5/6,2-5[8:1],
{8},5,8,8-4[8:1],,4,2,2h[4:1],
{16},,4,3,5,4,6,5,7-3[8:1],,,,5-2[8:1]*-8b[8:1]/7,,,,
{8}A5f/D5/D6,,7/3,1h[4:1]/8,3,3^6[8:1],,7V51[4:1]/3,
{8},8,2,4h[4:1],,5,5,4xqq5[16:5]/6,
{8},45,7,8qq1[16:5],,8/1,3,4xqq5[16:5],,
{8}4/5,7,8x-4b[8:1],,5,3bh[4:1],,
{8}1^6[8:1],,1/2,3,4-8[8:1],5,6,7V15[4:1],
{8},8,2,4h[4:1],,8,8,1/7x-4[8:1],
{8},7/4,1,3x-8[8:1]/5,,3/8,7,6-3[8:1]/8,
{16},,6/3,,1bx,,1,,{16}2xb,8,2,8,1bx,7,1,7,
{16}2b-5b[8:1],,3,4,2,,7,,4/5,,6^3[8:1],,3,,2V48b[4:1]/6,,
{8}2,8,6,5,1x/4x,2,3,5bxpp4b[16:5]/4,
{8}6,4,2,1bx^4[8:1],8,5bx^8b[8:1],6,4bxqq5[16:5],
{8}3,5,7,8,{16}3x,1x,3x,1x,3x,1x,3x,1x,
{8}3x^6[8:1],,5x-1[8:1]*-2b[8:1]/3,,5bx,,3/8,4qq1[16:5]/5,
{8},6,7,8h[4:1],,2-5[8:1],2,5x,
{8}6,7,8/4,4/8,{16}1x,2,3,4,8x,1,2,3,
{8}7bx-4^5-3[8:3],,,,,2b,2bh[4:1],,
{8}5xh[2:3],,4x,6x,4x,6x,4x,4x,
{8}6x,6x,4x,6x,{24}1x,2x,3x,4x,,,5x/6x,,,8bx-4[8:1],,,
{8},4,3,3-8[8:1],,8,7,7h[4:1],
{8},8,1/6,,5b-8[8:1]/4bz8b[8:1],,E7/B6/Cf/B2/E3,,
{8}2xh[4:1],,1xh[4:1],,3,3h[4:1],,4pp4[16:5],
{8},1,2,3-8b[8:1]*-7[8:1],,,,1/6h[4:1],
{8},8,4,3h[4:1],,1,5,6h[4:1],
{8},8,4,3-5[32:3],,3/5,,8bV64b[16:3],
{8},3,3h[4:1],,4x,4,5,6bh[8:4]/E3f/B3/B2,
{8},E7f/B6,,E5f,,1,1,2-5-3[4:1]/8,
{8},6,6h[4:1],,4,4,3/5,3hb[4:1],
{16},,5,4,6,5,8hbx[4:1],,,,4,5,3,4,2bhx[4:1],,
{16},,5,4,6,5,7hbx[4:1],,,,4,5,3,4,1bhx[4:1],,
{16},,5,4,6,5,6hbx[4:1],,,,4,5,3,4,1bx,5,
{16}1,5,1,5,1x,2x,3x,4x,7x,6x,5x,4x,1bx,,5bx^8v1^4b[2:1],,
&inote_6=(180)
{1},
{2},{16},,,,,,,,
{8}1b-5-1b[8:3]/5b,,,,,,,8h[4:1]/2,
{8},4,4,5-7[8:1],,2,2,4x/3hx[2:1],
{8},2,5,6h[8:3],,7,4,3h[8:3],
{8},1,4,6hb[8:3],,,1h[8:1],,
{8}1h[8:1],,1,1,{16}1x,8x,7x,6x,5x,4x,3x,2x,
{8}1bx^6[8:1],,2h[4:1],,4,3/5h[4:1],,8^3[8:1],
{8},7,7,6h[4:1]/4-8[8:1],,,,7h[4:1],
{8},1,2h[4:1]/8,,6,6q2b[8:1]*v3b[8:1],,A6f/E7/E6,
{8},A4,B2,E6,A8,,1hx[4:1],,
{8}8,,2/7,,3,3,4,3h[4:1],
{8},5,4,6h[4:1],,5,7-4[8:1]/4,,
{8}1h[4:1],,5,,2,4,3,3h[4:1],
{8},4,2-5[8:1]/5-1[8:1],,,,4/8,,
{8}6/5,,1/7,,2,2,1,2h[4:1],
{8},4,3,5h[4:1],,1,2/8h[4:1],,
{8}3,4-1[8:1],5,6,,7-3[8:1]/8,1,2,
{8},4/5-1b[8:1],3/6,2bh[4:1],,8,8,1,
{8}7/8,,2/6,4,5,5,4,6h[4:1],
{8},3,4,2h[4:1]/5,,7,8-4[8:1]/4,1,
{8}2,2,5,4,6,5,7,7h[4:1],
{8},4,8-5[8:1]/4-1[8:1],,,,2/6,,
{8}3/4,,8/2,1,7,7,8,6h[4:1],
{8},1,8,2h[4:1]/7,,4,5/3h[4:1],,
{8}6,5-8[8:1],4,3,,2-6[8:1]/1,8,7,
{8},5/4pp1b[8:3],6/3,7bh[8:3],,,,,
{8}3qq1[4:1],4pp6[4:1],,,,,,6/5,
{8},6-8[16:3]/5-3[16:3],,,,,,8b-6b[8:1]/1b-3b[8:1],
{8},8b-4b[8:1]/1b-5b[8:1],,8b^5b[8:1]/1b^4b[8:1],,,,3h[4:1],
{8},1,2/8,2/8V26[16:5],,,4,4,
{8}5h[4:1],,3,4-7[8:1]*-8b[8:1],5,,,1h[4:1]/6,
{8},3,4,5-2[8:1],6,,8,8,
{4}1h[8:1]/7h[8:1],2h[8:1]/8h[8:1],3h[8:1]/1h[8:1],2h[8:1]/4h[8:1],
{8}3/5,4,4,4,7/5,6,6,6,
{16}1/7,,1/7,,2/8,,2/8,,3,5,2,6,1,7,8bV25[4:1],,
{8},6x,6hx[4:1],,4-2[8:1],,8-4[8:1]*-6b[8:1]/4,,
{8}A8f/D1/D8,,3/5,2h[4:1],1,1-4[8:1],,1/5V73[4:1],
{8},4,2,8h[4:1],,7,7,6/5pp4[16:5],
{8},4,2,1pp8[16:5],,8,6,5pp4[16:5],
{8},4,2,1-5b[8:1],,5,7b,,
{8}8^3[8:1]/4,,7/8,6,5-1[8:1],4,3,2V84[4:1],
{8},1,7,5h[4:1],,3,3,2^7[8:1]/4,
{8},2/7,6,5-1[8:1]/8,,5/1,2,3/8h[4:1],
{8},1,1b-3[8:1]*-4[8:1],,1b-6[8:1]*-7[8:1],,1b-5b[8:1],,
{8}1x/5x,,6/4,7h[4:1],8,8-5[8:1],,8/4V26[4:1],
{8},5,7,1h[4:1],,2,2,3/4qq5[16:5],
{8},5,7,8qq1[16:5],,1,3,4qq5[16:5],
{8},5,7,8-4b[8:1],,4,2,1,
{8}8^3[8:1]/4^7[8:1],,8p4[8:1]/4p8[8:1],,4bx/8xb,,1/5,1pp6[16:5]/5,
{8},6,7,8h[4:1],,5-2[8:1],5,6x,
{8}7,8,2/1,2/1,{16}8x,7,6,5,2x,3,4,5,
{8}1b-5^4-7[8:3],,,,,3b,3bh[4:1],,
{8}5,,3,4,5,6h[4:1],,5,
{8},3/4,3h[4:1]/4,,5w1[8:1],,,,
{8}6/4,,6,5,4,3h[4:1],,4,
{8},6/5,6/5-8[8:1],,4b-1[8:1],,5b,,
{8}3/5,,3,4,5,6h[4:1],,5,
{8},3/4,3/4,2^7^2[8:3],,,,,
{8}6,,6,5,4,3h[4:1],,4,
{8},6/5,6/5,,A7/D8/A8/B8/B7,,C/B6/B5/B2/E3,,
{16}A3/B3/B4/A4f,,,,7,,1,8,1,,2,,2,,1x/3x,,
{8}4,3/5,6,4/5pp1[8:3],2v4b[8:1],,,,
{16}3x,,3x,,4/5,,6,5,6,,7,,7,,8x/6x,,
{8}5,6/4,3,2/4-1b[8:1],5-8b[8:1],4b,5b,,
{16}2,,2,,1/8,,7,8,7,,6,,6,,5x/7x,,
{8}8,1/7,2h[4:1],4,4,{16}5x,4x,3x/6x,,1/8,,
{8}3x^6[8:1],2,1,8x^3[8:1],7,6,5x^8[8:1]*^3b[8:1],,
{16}5-1[8:1],,,,5/6,,8,,1x/7hxb[8:1],,,2xhb[8:1]/4xqq5<3b[16:13],,,7xb/B2/B3/E3f,,
{8},,,,,,,8h[4:1],
{16},,3,,3,,2-5[8:1]/1,,,,5,,6,,7,,
(183)
{16}8/5,,67,,8/4,,65,,8/3,,6/4,,8/2,,6/3,,
(180)
{16}8-4[8:1]/1,,6/2-5[8:1],,8x,,2x,,6xh[8:1],,,5h[8:1]/7h[8:1],,,4b/8b,,
{16},,3,4,2,5,3,4,2,5,3,5,2,4,3,5,
{16}2,4,3,4,2,5,3,4,2,,1x/6xh[8:3],,8x,1x,2x,3x,
{16}4x,,7,7,6,,1,1,8,,1/7-4[8:1],,5,,8b,,
{32}3,,,,5,,4,,5,,,,6hbx[8:3],,,,{48}A7,D8,A8,D1,A1,D2,A2,D3,A3,D4,A4,D5,A5f/E5/B5,,,,,,,,,,,,
{8}8-4[8:1],5,3,1-6[8:1],4,6,8x,1bx-7[32:3]/5bx-3[32:3],
{8},1/5,,2b-5[8:1]/6b-1[8:1],,2/6,,{24}8bx,7x,6x,
{24}5x/4x-7[8:1],,,,,,3x,,,1bx,2x,3x,4x/8x-4[8:1],,,,,,1x,,,2-5V38[8:3],,,
{8},5,6,7,7x-3[8:1]*-4b[8:1],,,,
{8}2/5,1,3/4,2,4/5,8,6/4,7^4[8:1],
{24}7,,,4,,,3,,,1-5[8:1],,,1,,,5,,,7,,,8x/4x,,,
{16}7,,1/5,,3,,7/5,,6,,2/4,,3,,6/5,,
{16}4x,6,4,1,4,6,4,1,4x,6,3,6,2,6,1,6,
{32}A8f,B8,C,B4,A4,,,,,,,,,,,,,,,,,,,,,,,,,,,,
{1},
{1},
{1},
{12}3x,4,3,5x,4,5,3x,4,2,6x,5,7,
{8}1b>6[8:3],,,,E7/B6,,,8<3[8:3],
{8},1,1,,E3/B3,,2,4,
{4}3h[8:1],4h[8:1]/3h[8:1],5h[8:1],4h[8:1]/5h[8:1],
{8}6/5,6,6/8,6,7/4,7,7/1,7,
{16}2/8,,1/3,,2/4,,3/5,,4,6,3,7,2,8,1b-5-1[4:1],,
{16},,5,,6,,7,,8/2,3,4,5,8,7,6,5,
{8}1-5[8:1],1,6-1[8:1],6,3^5[32:3],3,8,8xqq1[4:1],
{8},1,3,4qq5[4:1],,5,7,8h[4:1],
{16},,5,7,4,6,3,5,2-6[8:1],,,,4-7[8:1]*-1b[8:1]/2,,,,
{8}A4f/D5/D4,,6/2,1h[4:1]/8,3,3^6[8:1],,1V74[4:1]/3,
{8},5,3,1h[4:1],,5,5,4xqq5[16:5]/6,
{8}3,5,7,8x^5[8:1],1,4x^1[8:1],3,5xpp4[16:5],6,
{8}4,2,1x-5b[8:1],,4,8bh[4:1],,
{8}1^6[8:1],,1/2,3,4-8[8:1],5,6,7V15[4:1],
{8},8,2,4h[4:1],,8,8,1/7x-4[8:1],
{8}4,7,1,3x-8[8:1]/5,8,3,7,6-3[8:1]/8,
{16}3,,6,,1bx,,1,,{16}2xb,8,1,7,5bx,6,3,4,
{8}2b-5[8:1],,2/5,7h[4:1],6,6^3[8:1],,8V25[4:1]/6,
{8},4,6,8h[4:1],,4,4,5xpp4[16:5]/3,
{8}6,4,2,1x^4[8:1],8,5x^8[8:1],6,4xqq5[16:5],3,
{8}5,7,8x-4b[8:1],,5,3,1,
{8}4-6[32:3]/8-2[32:3],,4^1[8:1]/8^5[8:1],,4xb/8xb,,1/5,3pp6[16:5]/4,
{8},6,7,8h[4:1],,5-1[8:1],5,6x,
{8}6,7,8/1,1/8,{16}1x,2,3,4,6x,7,8,1,
{8}4b-7V51[8:3],,,,,8b,8bh[4:1],,
{8}5xh[2:3],,6x,4x,6x,4x,6x,6x,
{8}4x,4x,6x,4x,{16}8x,7x,6x,5x,4x,3x,1bx-5[8:1],,
{8},5,6,6-1[8:1],,1,2,2h[4:1],
{8},1,8/3,,5b-8[8:1]/4bz8b[8:1],,E7/B6/Cf/B2/E3,,
{8}2xh[4:1],,1xh[4:1],,3,3h[4:1],,4pp4[16:5],
{8},1,2,3-8b[8:1]*-7[8:1],,,,1/6h[4:1],
{8},7,4,3h[4:1],,2,5,6h[4:1],
{8},7,4,3-5[8:1],,5,,8bV64b[16:3],
{8},3,3h[4:1],,4x,4,5,6bh[8:4]/E3f/B3/B2,
{8},E7f/B6,,E5f,,1,1,2-5-3[4:1]/8,
{8},6,6h[4:1],,4,4,3/5,3hb[4:1],
{16},,5,4,6,5,8hbx[4:1],,,,4,5,3,4,2bhx[4:1],,
{16},,5,4,6,5,7hbx[4:1],,,,4,5,3,4,1bhx[4:1],,
{16},,5,4,6,5,6hbx[4:1],,,,4,5,3,4,1bx,5,
{16}1,5,1,5,1x,2x,3x,4x,7x,6x,5x,4x,1bx,,5bx^8v1^4[2:1],,
