&title=Break Over
&artist=K-forest
&first=0
&des=阿婆麻油
&lv_1=14?
&lv_5=14
&inote_1=(185){1},
{4},,,
{8}6hb[8:1]/3hb[8:1],,
{48}1b/8b,2b/7b,6b/3b,4b<4b[48:129]/5b>5b[48:129],,,{8},,,,,,,
{1},,,
{8}1b,,3b,5b,4b,6b,5b,8b,
{8},6b,4b,5b,E8f/B7f/3b,,6b/E2f/B2f,,
{8}8b,,7b,3b,6b,2b,5b,1b/4hb[4:1],
{8},5hb[4:1],,8hb[4:1],,1b,2b/7b,,
{48}8b,1b/7b,2b/6b,3hb[16:3]/5hb[16:3],,,,,,,,,,,,,,,,,,,,,3b/5b,,,,,,,,,5b/3b,,,,,,,,,5b/3b,,,,,,
{16}E4f,E5f,B3f,B5f,B2f,B6f,E2f,E7f,4b,6b,3b,7b,1b,,,,
{48}1b,2b/8b,3b/7b,4hb[16:3]/6hb[16:3],,,,,,,,,,,,,,,,,,,,,4b/6b,,,,,,,,,6b/4b,,,,,,,,,4b/6b,,,,,,
{16}E6f,E5f,E7f,E4f,E8f,E3f,E1f,E2f,5b,3b,6b,2b,8b,,,,
{16}7b/1b,,,7b/1b,,,7b/1b,,5b/4b,,3b,2b/4b,,6b,5b/7b,,
{16}2b/8b,,,2b/8b,,,2b/8b,,4b/5b,,7b,6b/8b,,2b,3b/1b,,
{16}4b,5b,4b,5b,3b,6b,3b,6b,2b,7b,2b,7b,1b,8b,1b,8hb[16:7],
{16},,1b,,,,1b,,,,1b,8b,7b-4b[8:1]/2b-5>1b[8:3],,,,
{16}2b/7b,,,,8b-4b[8:1],7b,6b,5b,8b,,,,7b-3b[8:1],8b,6b,8b,
{16}7b,,,,2b,1b,3b,8b,2b-6b[8:1],,1b-5b[8:1],,2b,,1b,,
{16}1bw5b[8:1],,,,1b,,,,B4f,B6f,B2f,B8f,1b,,,,
{8}5b,E8f/B7f/3b,4b,E2f/B2f/6b,4b/5b,6b/3b,2b-5b[8:1]/7b-4<8b[8:3],,
{16}2b/7b,,,,1b-5b[8:1],2b,3b,4b,1b,,,,2b-6b[8:1],1b,3b,1b,
{16}2b,,,,7b,8b,6b,1b,7b-3b[8:1],,8b-4b[8:1],,7b,,8b,,
{16}8bw4b[8:1],,,,8b,,,,6b,2b,7b,1b-7-2-6-3-5-1b[8:7],8hb[1:1],,,,
{16}A7f,,,A2f,,,A6f,,A3f,,A5f,,A1f,,,,
{16}8b<5b[16:3],,,,8b/5b,4b,3b,2b,1b>4b[16:3]/4b,,,,5b-1b[8:1],6b,7b,8b,
{16}5b,,,,2b,8b,4b,6b,2bpp4b[8:1],,8bqq6b[8:1],,2b,,8b,,
{16}1bw5b[8:1],,,,1b,,,,B4f,B6f,B2f,B8f,1b,,,,
{8}5b/3b,B7f/E8f,4b/6b,B2f/E2f,6b/3b,3bh[4:1]/6bh[4:1],,,
{16}1b/8b,,,,,,,,1b,,6b,7b/5b,,,5b/7b,,
{16}8b,,3b,2b/4b,,,2b/4b,,1bh[4:1]/8bh[4:1],,,,,,,,
{16}4b,5b,4b,5b,3b,6b,3b,6b,2b,7b,2b,7b,1b,8b,1b,8b,
{16}1b-5b[8:1],,5b,,1b,,8b-4b[8:1],,4b,,8b,,1bw5b[8:1],,,,
{8}1b,,2b-4b[61.7#24:1],,1b-5b[61.7#24:1],,8b-6b[61.7#24:1],,
{8}2b/4b,,1b/5b,,8b/6b,,,,
{16}1b,2b,3b,4b,5b,6b,7b-5b[72.265625#24:1],8b-4b[54.921875#32:1],1b-3b[46.25#40:1],,,,6b,,4b,,
{8}7b/5b,,8b/4b,,1b/3b,,,,
{8}1b/8b,,1b-4b[61.7#24:1]/7b,,1b-6b[61.7#24:1]/6b,,1b-5b[61.7#24:1]/5b,,
{8}4b/1b,,6b/1b,,5b/1b,,8b,,
{8}8b/1b,,8b-5b[61.7#24:1]/1b,,8b-3b[61.7#24:1]/1b,,8b-4b[61.7#24:1]/1b,,
{4}8b/1b,8b/1b,8b/1b,,
{16}1b/E8f,,,E7f,1b-5b[61.7#24:1],,E6f,,E8f/1b-3b[61.7#24:1],,,E7f,1b-4b[61.7#24:1],,E6f,,
{4}1b/5b,1b/3b,1b/4b,,
{16}8b/E2f,,,E3b,8b-4b[61.7#24:1],,E4f,,E2f/8b-6b[61.7#24:1],,,E3f,8b-5b[61.7#24:1],,E4f,,
{4}1b/8b,1b/8b,1b/8b,,
{16}1b/8b,,,7b,1b,,6b,,1b/8b,,,7b,1b-7b[8:1],,6b,,
{16}1b-3b[8:1]/5b,,,,1bw5b[8:1]/5b,,,,1b,,,,,,,,
{16}3b,,2b/4b,,5b,,4b/6b,,2b,6b,1b,7b,8b-4b[8:1],8b,8b,8b,
{4}8b-2b[8:1]*-6b[8:1],8bw4b[8:1],{4}8b,8b-4b[8:1],
{48}8b/4b>5b[1:2],B8f,Cf,B4f,,,,,,,,,{4},,,
{1},
{1}4b>5b[1:2],,
{1}4b>5b[1:2],,
{1}4b>5b[4:3],
{16},,1b,3b,2b,,8b,6b,7b,,5b/4b,,3b/6b,,,,
{8}2b/7b,,,,,A2f/6b,,A3f/7b,
{8},,,,,,A7f/3b,,
{8}A6f/2b,,,,,D2f/E6f,D1f/E5f,D8f/E4f,
{16}7b,,6b,,5b,,4b,,3bh[8:3],,,,4b,,4b,3b,
{16}5b/2b,,6bh[4:1],,5b,,5b,6b,7b/4b,,3b,,5b/2b,,6b,,
{16}4b/7b,,6b,,4b,5b,2b,7b,1b,,8b,,3b,6b,4b,5b,
{48}4b,,,5b,,,3b,,,6b,,,2b,,,7b,,,1b,,,8b,,,1b-5b[8:7],,2b,,3b,,8b,,7b,,6b,,2b,,3b,,4b,,7b,,6b,,5b,,
{8}3b,7b,2b,8b,1bw5b[8:1],,1b,,
{16}2b-5b[8:1],,6b,,2b,,6b-1<5b[16:5],,2b,,6b,,4b-7b[8:1],3b,2b,1b,
{16}4b-1b[8:1]/8b,,2b,,4b-8b[8:1]/8b,,6b,,4b/2b-5b[8:1]*-7b[8:1],,,,2b,,,,
{16}8b-4b[8:1],,4b,,8b,,1b-5b[8:1],,5b,,1b,,8b>2b[8:1],1b,6b,3b,
{8}8b<6b[8:1],4b,8b-3b[8:1]*-5b[8:1],2b,8b,,{16}4b,5b,3b,6b,
{16}3bv6b[8:1],,6b,,3b,,7bv2<6b[16:5],,2b,,7b,,5b,4b,3b,2b,
{16}5b/1b-5b[8:1],,2b,,1b/7b-3b[8:1],,6b,,7b/3b,,,,4b,,3b,,
{16}2b/5b,,2b/5b,,,,6b,5b,4b/7b,,4b/7b,,,,4b,5b,
{4}1hb[8:1]/8hb[8:1],2hb[8:1]/7hb[8:1],3hb[8:1]/6hb[8:1],4b/5bw1b[8:1],
{48}B5f,Cf,B1f,,,,,,,,,,{16}7b,,3b-8>4b[16:5],,7b,,3b,,5b-2b[8:1],6b,7b,8b,
{16}5b-8b[8:1]/1b,,7b,,5b-1b[8:1]/1b,,3b,,5b/7bw3b[8:1],,,,7b,,,,
{16}1b-5b[8:1],,5b,,1b,,8b-4b[8:1],,4b,,8b,,1b<7b[8:1],8b,3b,6b,
{8}1b>3b[8:1],5b,1bw5b[8:1],7b,1b,,{16}5b,4b,6b,3b,
{16}6bv3b[8:1],,3b,,6b,,2bv7>3b[16:5],,7b,,2b,,4b,5b,6b,7b,
{16}4b/8b-4b[8:1],,7b,,8b/2b-6b[8:1],,3b,,2b/7bh[8:3],,,,,,8b,7b,
{16}1b/6b,,,,,,2b,1b,3b/8b,,,,,,5b,4b,
{8}A1f/7b,A5f/3b,A2f/8b,A6f/4b,1b/8b,,3b,6b,
{8}2b-4b[8:1],1b,2b-6b[8:1],1b-7b[8:1],2b,1b-5b[8:1],2b,1b,
{8}2b<8b[8:1],7b,2b>4b[8:1],5b,2b-5b[8:1],8b,2b,7b,
{8}1b>3b[8:1],8b,1bv4b[8:1],8b<6b[8:1],1b,8bv5b[8:1],1b,8b,
{8}1b-7b[8:1],6b,1b-3b[8:1],4b,1bw5b[8:1],7b,1b,,
{8}7b-5b[8:1],8b,7b-3b[8:1],8b-2b[8:1],7b,8b-4b[8:1],7b,8b,
{8}7b>1b[8:1],2b,7b<5b[8:1],4b,7b-4b[8:1],1b,7b,3b,
{16}2b/5b,,2b/5b,,,,6b,5b,7b/4b,,7b/4b,,,,1b,8b,
{4}4hb[8:1]/5bh[8:1],3bh[8:1]/6bh[8:1],2bh[8:1]/7bh[8:1],1bw5b[8:1]/8b,
{48}B1f,Cf,B5f,,,,,,,,,,{16}7b,,3b-6>2b[16:5],,7b,,3b,,1b,8b,7b,6b,
{8}1b/5b-2b[8:1],3b,5b-8b[8:1]/1b,7b,5b-1b[8:1]/1b,3b,5b/1b,,
{16}2b-7b[8:1],,6b,,2b,,6b-3<7b[16:5],,2b,,6b,,8b,1b,2b,3b,
{8}8b/4b,3b,1b/5b,6b,1b/8b,1b/8b,1b/8b,{16}1b/8b,2b/7b,
{48}3b-7b[8:1]/6b,,,,,,3b,,,,,,2b-6b[8:1],,,,,,2b,,,,,,1b-5b[8:1],,,,,,1b,,,,,,8b-4b[8:1],,,,,,8b,,,,,,
{48}7b-3b[8:1],,,,,,7b,,,,,,6b-2b[8:1],,,,,,6b,,,,,,5b-1b[8:1],,,,,,5b,,,,,,4b-8b[8:1],,,,,,4b,,,3b,,,
{48}4b,,,,,,,,,,,,{16}5b-1b[8:1]/6b,,5b,6b,{48}5b,,,,,,,,,,,,,,,,,,4b,,,5b,,,
{16}2b,4b,3b,7b,5b,6b,1b,3b,2b,8b,6b,7b,1b-5b[8:1],8b,2b,7b,
{1}1b`Cf,
E
&inote_5=(185){1},
{4},,,
{8}6h[8:1]/3h[8:1],,
{48}1b/8b,2b/7b,6b/3b,4b<4b[48:129]/5b>5b[48:129],,,{8},,,,,,,
{1},,,
{8}1,,3,5,4,6,5,8,
{8},6,4,5,E8/B7/3,,6/E2/B2,,
{8}8,,7,3,6,2,5,1/4h[4:1],
{8},5h[4:1],,8h[4:1],,1,2b/7b,,
{48}8b,1x/7x,2x/6x,3hx[16:3]/5hx[16:3],,,,,,,,,,,,,,,,,,,,,3bx/5bx,,,,,,,,,5bx/3bx,,,,,,,,,5bx/3bx,,,,,,
{16}E4,E5,B3,B5,B2,B6,E2,E7,4x,6x,3x,7x,1x,,,,
{48}1bx,2x/8x,3x/7x,4hx[16:3]/6hx[16:3],,,,,,,,,,,,,,,,,,,,,4bx/6bx,,,,,,,,,6bx/4bx,,,,,,,,,4bx/6bx,,,,,,
{16}E6,E5,E7,E4,E8,E3,E1,E2,5,3,6,2,8,,,,
{16}7bx/1bx,,,7bx/1bx,,,7bx/1bx,,54,,3,24,,6,57,,
{16}2bx/8bx,,,2bx/8bx,,,2bx/8bx,,45,,7,68,,2,31,,
{16}4,5,4,5,3,6,3,6,2,7,2,7,1,8,1,8h[16:7],
{16},,1,,,,1,,,,1,8,7b-4[8:1]/2b-5>1[8:3],,,,
{16}2b/7b,,,,8-4[8:1],7,6,5,8x,,,,7-3[8:1],8,6,8,
{16}7,,,,2,1,3,8,2-6[8:1],,1-5[8:1],,2b,,1b,,
{16}1xw5b[8:1],,,,1b,,,,B4,B6,B2,B8,1,,,,
{8}5,E8/B7/3,4,E2/B2/6,45,63,2-5[8:1]/7-4<8[8:3],,
{16}2b/7b,,,,1-5[8:1],2,3,4,1x,,,,2-6[8:1],1,3,1,
{16}2,,,,7,8,6,1,7-3[8:1],,8-4[8:1],,7b,,8b,,
{16}8xw4b[8:1],,,,8b,,,,6x,2x,7x,1x-7-2-6-3-5-1b[8:7],8hb[1:1],,,,
{16}A7,,,A2,,,A6,,A3,,A5,,A1f,,,,
{16}8b<5[16:3],,,,85,4,3,2,1>4[16:3]/4x,,,,5-1[8:1],6,7,8,
{16}5x,,,,2,8,4,6,2pp4[8:1],,8qq6[8:1],,2b,,8b,,
{16}1w5b[8:1],,,,1b,,,,B4,B6,B2,B8,1,,,,
{8}53,B7/E8,46,B2/E2,63,3h[4:1]/6h[4:1],,,
{16}1b/8b,,,,,,,,1,,6,75,,,57,,
{16}8,,3,24,,,24,,1h[4:1]/8h[4:1],,,,,,,,
{16}4,5,4,5,3,6,3,6,2,7,2,7,1,8,1,8,
{16}1-5[8:1],,5,,1,,8-4[8:1],,4,,8,,1w5b[8:1],,,,
{8}1b,,2-4b[61.7#24:1],,1-5b[61.7#24:1],,8-6b[61.7#24:1],,
{8}2b/4x,,1b/5x,,8b/6x,,,,
{16}1x,2x,3x,4x,5x,6x,7x-5b[72.265625#24:1],8x-4b[54.921875#32:1],1x-3b[46.25#40:1],,,,6,,4,,
{8}7b/5x,,8b/4x,,1b/3x,,,,
{8}1/8,,1-4b[61.7#24:1]/7,,1-6b[61.7#24:1]/6,,1-5b[61.7#24:1]/5,,
{8}4x/1b,,6x/1b,,5x/1b,,8,,
{8}8/1,,8-5b[61.7#24:1]/1,,8-3b[61.7#24:1]/1,,8-4b[61.7#24:1]/1,,
{4}8b/1x,8b/1x,8b/1x,,
{16}1/E8,,,E7,1-5b[61.7#24:1],,E6,,E8/1-3b[61.7#24:1],,,E7,1-4b[61.7#24:1],,E6,,
{4}1b/5x,1b/3x,1b/4x,,
{16}8/E2,,,E3,8-4b[61.7#24:1],,E4,,E2/8-6b[61.7#24:1],,,E3,8-5b[61.7#24:1],,E4,,
{4}1x/8b,1x/8b,1x/8b,,
{16}1/8x,,,7x,1,,6x,,1/8x,,,7x,1-7b[8:1],,6x,,
{16}1b-3b[8:1]/5,,,,1bw5b[8:1]/5,,,,1b,,,,,,,,
{16}3,,24,,5,,46,,2,6,1,7,8bx-4b[8:1],8bx,8bx,8bx,
{4}8b-2b[8:1]*-6b[8:1],8bw4b[8:1],{4}8b,8b-4b[8:1],
{48}8b/4b>5[1:2],B8,Cf,B4,,,,,,,,,{4},,,
{1},
{1}4>5b[1:2],,
{1}4>5[1:2],,
{1}4>5b[4:3],
{16},,1x,3x,2x,,8,6,7,,54,,36,,,,
{8}2b/7b,,,,,A2f/6b,,A3f/7b,
{8},,,,,,A7f/3b,,
{8}A6f/2b,,,,,D2f/E6,D1f/E5,D8f/E4,
{16}7x,,6,,5,,4,,3h[8:3],,,,4,,4,3,
{16}52,,6h[4:1],,5,,5,6,74,,3,,52,,6,,
{16}47,,6,,4,5,2,7,1x,,8x,,3,6,4,5,
{48}4,,,5,,,3,,,6,,,2,,,7,,,1,,,8,,,1x-5[8:7],,2x,,3x,,8x,,7x,,6x,,2b,,3,,4,,7b,,6,,5,,
{8}3x,7x,2x,8x,1bxw5b[8:1],,1b,,
{16}2-5[8:1],,6,,2,,6-1<5[16:5],,2,,6b,,4-7[8:1],3,2,1,
{16}4x-1[8:1]/8,,2,,4-8[8:1]/8,,6,,4/2-5b[8:1]*-7b[8:1],,,,2b,,,,
{16}8-4b[8:1],,4,,8b,,1-5[8:1],,5,,1,,8>2[8:1],1,6,3,
{8}8b<6[8:1],4,8b-3b[8:1]*-5b[8:1],2,8b,,{16}4,5,3,6,
{16}3v6[8:1],,6,,3,,7v2<6[16:5],,2,,7b,,5x,4,3,2,
{16}5x/1-5b[8:1],,2,,1b/7b-3b[8:1],,6,,7b/3b,,,,4,,3,,
{16}2bx/5bx,,2bx/5bx,,,,6,5,4b/7b,,4b/7b,,,,4,5,
{4}1hbx[8:1]/8hbx[8:1],2hb[8:1]/7hb[8:1],3hb[8:1]/6hb[8:1],4b/5bw1b[8:1],
{48}B5,Cf,B1,,,,,,,,,,{16}7x,,3x-8>4[16:5],,7,,3b,,5-2[8:1],6,7,8,
{16}5x-8[8:1]/1,,7,,5-1[8:1]/1,,3,,5/7w3b[8:1],,,,7b,,,,
{16}1-5b[8:1],,5,,1b,,8-4[8:1],,4,,8,,1<7[8:1],8,3,6,
{8}1b>3[8:1],5,1bw5b[8:1],7,1b,,{16}5x,4,6,3,
{16}6v3[8:1],,3,,6,,2v7>3[16:5],,7,,2b,,4x,5,6,7,
{16}4x/8b-4b[8:1],,7,,8b/2b-6b[8:1],,3,,2b/7bh[8:3],,,,,,8,7,
{16}1b/6b,,,,,,2,1,3b/8b,,,,,,5,4,
{8}A1f/7bx,A5f/3bx,A2f/8bx,A6f/4bx,1b/8b,,3,6,
{8}2-4b[8:1],1,2-6b[8:1],1-7[8:1],2,1-5[8:1],2,1,
{8}2<8[8:1],7,2b>4[8:1],5,2b-5b[8:1],8,2b,7,
{8}1>3b[8:1],8,1v4b[8:1],8<6[8:1],1,8v5[8:1],1,8,
{8}1-7[8:1],6,1b-3[8:1],4,1bw5b[8:1],7,1b,,
{8}7-5[8:1],8,7-3[8:1],8-2b[8:1],7,8-4b[8:1],7,8,
{8}7>1[8:1],2,7b<5[8:1],4,7b-4b[8:1],1,7b,3,
{16}2bx/5bx,,2bx/5bx,,,,6,5,7b/4b,,7b/4b,,,,1,8,
{4}4hbx[8:1]/5bhx[8:1],3bh[8:1]/6bh[8:1],2bh[8:1]/7bh[8:1],1bw5b[8:1]/8b,
{48}B1,Cf,B5,,,,,,,,,,{16}7,,3-6>2b[16:5],,7,,3b,,1x,8,7,6,
{8}1/5x-2[8:1],3,5-8[8:1]/1,7,5-1b[8:1]/1,3,5b/1b,,
{16}2-7[8:1],,6,,2,,6-3<7b[16:5],,2,,6b,,8x,1,2,3,
{8}8/4x,3,15,6,1b/8b,1b/8b,1b/8b,{16}1bx/8bx,2bx/7bx,
{48}3bx-7b[8:1]/6bx,,,,,,3,,,,,,2bx-6b[8:1],,,,,,2,,,,,,1bx-5b[8:1],,,,,,1,,,,,,8bx-4b[8:1],,,,,,8,,,,,,
{48}7bx-3b[8:1],,,,,,7,,,,,,6bx-2b[8:1],,,,,,6,,,,,,5bx-1b[8:1],,,,,,5,,,,,,4bx-8b[8:1],,,,,,4,,,3,,,
{48}4b,,,,,,,,,,,,{16}5-1b[8:1]/6,,5,6,{48}5b,,,,,,,,,,,,,,,,,,4,,,5,,,
{16}2,4,3,7,5,6,1,3,2,8,6,7,1-5b[8:1],8,2,7,
{1}1b`Cf,
E
