&title=ときめきランデヴー
&artist=shami momo(吉田優子・千代田桃); CV:小原好美・鬼頭明里
&first=0.58
&des=虾米口
&lv_5=13
&inote_1=(200)
{4}1,1,1,1,1b,1b,1b,1b,A1,A1,A1,A1,Chf[1:1],
&inote_5=(200)
{16}26,,,,37,,,4,5,4,,27,,,,,
{12}
28,,7,5,,,17,,2,4,,,1h[12:3]/5h[32:1],,,7,,2,5,,,46,,,
71,,2,4,,,82,,7,5,,,8h[12:3]/4h[32:1],,,2,,7,4,,53,53,,,
28,,7,5,,,17,,2,4,,,1h[12:3]/5h[32:1],,,7,,2,5,,,46,,,,,
8>3[4:1]/4^7[4:1],,,,,,,,,1<6[4:1]/5^2[4:1],,,,,,,,,,1b/5b,,,,,
2h[12:4],,,3,3,,,1,,,7,,,4,,,82,,73,,,
3h[12:4]/4,,,8,8,,
6h[12:4]/5,,,1,1,,
4h[12:4]/3,,,1,1,,
5h[12:4]/6,,,8,8,,
1h[12:4],,,,2h[4:1],,,3h[4:1],,,
4h[4:2],,,5h[4:1],,,,,5-8[8:1]/4-7[8:1],
,,,,,,
{1}1bw5[12:8],
{12},,,5,,,5,,4,5,,,
5,,,5,,2,5,,3,5,,4,5,
,,5,,3,4,,4,5,,
2>5[8:1],,,8,8,,,
7<4[8:1],,1,1,,
2,8,,3,7,,4,6,,3,3,,
6<1[8:1],,,4,4,,,
3>8[8:1],,5,5,,
6bqq2[2:1]*-8[8:1],,,,
{4},,,
{16},,3,4,3,4,3,4,2,,,,{12}18,,,24,,,5qq1[2:1]*-7[8:1]/7,,56,
{4},,
{16},,6,5,6,5,6,5,7,,,,{12}18,,,57,,2,24,,34,,,4b/8b,
,,,
{4}2-4[8:1]/5-1[8:1],25,
{12}4,,4,7,,4,6,,1,8,,6,,,1h[12:3]/7h[12:3],,,,
{4}7-5[8:1]/4-8[8:1],74,
{12}5,,5,2,,5,3,,8,1,,3,,,8h[12:3]/2h[12:3],,,,
{8}7h[4:2]/3>1[8:1],,,,5,,46,,
{8}2h[4:2]/6<8[8:1],,,,4,,53,,
2>5[4:1],,1,,8<5[4:1],,1,,
2-5[4:1],,1,,8-5[8:1],,1,,
{4}2pp4[8:1]/6pp8[8:1],26,
{12}3,,3,7,,3,6,2,7,1,8,1,,,2h[8:2]/6h[8:2],,,,
{4}7qq5[8:1]/3qq1[8:1],73,
{12}2,,4,4,,8h[4:2],,,7,,,1h[4:1],,,2,,,,
{12}6<2[4:1]/3h[12:6],,,,,,,,,,,
3>5[12:4]/8h[12:7],,,,,,,,,,,,
24,,,3,3,,1,1,,7,7,,,46,,4,5,,36,,,5,5,,2,2,,
3h[4:1]/7h[4:1],,,,26,,1,15,,,48,,26,,,4v1[12:2]/8-5[12:2],,,,,,,
2<7[8:1],,,5-2[8:1],,,6,,5-8[8:1],,,
2h[4:1],,,,3^6[8:1],,,3-7[8:1],,,,,,
1-4[8:1],,,8-5[4:1],,,
3,,2,,,1^6[4:1],,,,2b,,2b,,,
{24}
4-2[8:1],,5,,,,4,,,,,,
5-7[8:1],,4,,,,5,,,,,,
1-4[8:1],,7,,,,1,,,,,,
8-5[8:1],,2,,,,8,,,,,,
{12}
3,4,,6,5,,36,36,,,27,,1,8,,,37,,6,4,,35,,,1b/7b,
,,,
{4}5h[1:1]/4,2,8,6,4h[4:3],7,1,3qq1[4:2]*pp5[4:2],,,,
{12},,2,4,,3,1,,2,4,,3,5,,4,
1h[12:3]/7h[12:3],,,,2h[12:3]/6h[12:3],,,,3h[12:2]/5h[12:2],,,
4h[12:4],,,,5h[12:3],,,3,,6,,,
4,4,,3h[12:3]/5h[12:3],,,,26,,,17,,,
{4}4h[8:7],,6h[8:3],{16},,
,,
{12}
3,5,3,6,4,6,3,5,3,6,4,6,
3,5,3,6,4,6,3,5,3,6,4,6,
2,4,2,7,5,7,2,4,2,7,5,7,
2,4,2,7,5,7,,,7,,,1b,,,
2h[12:4],,,3,3,,,1,,,7,,,4,,,17,,26,,,
6h[12:4]/5,,,1,1,,
3h[12:4]/4,,,8,8,,
5h[12:4]/6,,,8,8,,
4h[12:4]/3,,,1,1,,
4q5[16:10]/5<4[16:10],,,,,,,,,,,,,
26,,37,,,48,,,15,,,,,,,,2q7[60#4:2]/6q3[60#4:2],
