&title=貰い火傷
&artist=kyiku
&first=0
&des=Tile.
&des_4=Tile.
&des_5=
&lv_4=11+
&inote_4=(95){4},,{2}C,
C,C,
C,C,
C,C,
C,{4}1/5-8[8:1],4,
{8}2/1,2,,,{4}8/4-1[8:1],5,
{16}7/8,,,7,,,{8}5h[8:1],1,2,{4}3>8[8:1],
{8},,8/7,C,8,7,{4}6<1[8:1],
{8},,C,Ch[8:1],,B8/E8/B7,B3/E4/B4,B6/E6/B5,
B1/B2/E2,Ch[4:1],,B7/E7/B6/B2/E3/B3,,5/4,4,5/4,
5,6,7,8h[8:5],{16},,,,,,,,2,
,,C,,,{8}6,5/4,3,{4}4>1[4:1]/5<8[4:1],
{16},,,,,,,,Ch[8:1],,,7,,8,{8}8,
{16}3,,,5/4,,3,{8}3,{4}8-5[8:1],8,
1pp1[4:1],1,{8},7xqq6[4:1]*qq6[4:1],{4}2xpp3[4:1],
{8},,,C,,Ch[8:11],,,,,,,,,,,,,{4}7/2,
{2}1-4[2.5263##0.3158]/8-5[2.5263##0.3158],
{4},,8/1,C,
4-8[8:1],5-1<7[4:1]*-1>3[4:1],{8},,,1,
2/8,3/7,4/6,5,3/5,4,6/4,5,
{4}1/8,{8}C,5h[8:1],1,2,3,4,
{4}5<8[8:1],4,8-2-7[2:1],3-7[4:1],
,,E6fh[8:27],1-4[8:1],
,4,3,2,
{2}1h[4:1],E2fh[8:11]/B1fh[8:11]/B2fh[16:0]/B2h[8:11],
,,,5-8[2:1],
{16}B2,,,B3,,,,,{2}5-8>4[2:3]/4-1<5[2:3],
{4},,,,,,2x-7[8:1],
3x-6[8:1],
,C,{8},,,,,,,2,
{4}3,5/4,
{8},,,,,,,,,,,,,8x-3[8:1],
,4x-1-6[4:1],
,,,,{4}C,8-5[8:1],
{2}1-4-2[4:1],{4}E7,8/1,
,Ch[4:3],,,,5h[4:1]/4h[4:1],
{24},,,3,4,3,{8}4,{24}5,6,5,
{8}6,C,1/8,2/7,C,{24}3,4,3,{8}4,{24}5,6,5,
{8}6,C,1/8,2/7,C,7x>1>3<5<7[8:5],,C,
{4},,{16},,{64}7x-3[8:5],2x-6b[64:39],{4},,,{16},,,{64},,{24}1x,
2x,3x,{8}4x,{24}8x,7x,6x,
{8}5x,C,1/8,2/7,C,{24}8x,7x,6x,{8}5x,B2h[8:1],
,7x,7x,8x<5[4:1],,E3h[8:7],,,5,
6,7,8h[8:1],,1,2,3,
4,5/4,6,7,8h[4:35],{16}B3,B4,,,,,,,B3,
B4,,,,,,,B3,B4,,,,,,,B3,
B4,,,,,,,B3,B4,,,,,,,B3,
B4,,,,,,,B3,B4,,,,,,,B3,
B4,,,,,{8}1,1,2,2,
B2,B3,B4,B5,1,2,3pp6>3[2:1],4,
,,,,,B2h[8:1]/B3h[4:1]/E3h[8:3]/A2h[2:1]/D3h[8:5]/A3h[4:3],,,,,,,,4-1[8:9],
,,,,,,,,,,,,{4}Ch[4:1],
{1},,,,,,,,,{4},,,Ch[4:1],
{8}B2/E3/B3/B7/E7/B6,1/8,{4}3h[4:1],
{8}8-5[8:1],1,,,1/2,2,7/8,7,
{4}2-6[4:1]/8-4[4:1],,,2/1<5[4:1],
,8>4[4:1],,C,
{8}1h[16:3]/8h[4:1],,,C,5/4,5,4/5h[8:1],2,
4/5,4,5/4h[8:1],7,{4}E6h[8:27],1-4[8:1],
{8},,4,4,3,3,2,2,
{2}1h[4:1],E2h[8:11]/B1h[8:11]/B2h[16:0]/B2h[8:11],
,,{1}B6h[4:7]/Ch[4:7],
{4},,,,B2h[4:7],
E8,,B7,
,B6,,B5,
8-3[2:1],2-7[4:1],{8},,,C,
{4}4/5,C,5,C,
6,C,7,C,
{1}8<4z8>3v4[4:9],
{2},,,C,
C,C,
C,{4}C,B8,
1-6[4:1]*-4[4:1],,,C,
5h[4:1],2,C,B8,
4-1[4:1]/5-8[4:1],,,C,
{1}8w4b[16:9]/1w5b[16:9],
E
