&title=ALTER EGO
&artist=Yuta Imai
&first=0.02
&des=布丁罐头
&lv_5=14+
&inote_5=(195)
{16},,,,,,,,,,,,E8,E7,E6,E5,
{8}3x,,2,2,5,5,3,{16}5,4,
5,,,,5,,,6,4,,{24}6,5,6x,{16}5x,,7,,
7,,,,2,,3,,4,,5,,6,,7,5,
7,,,,7,,,2,8,,{24}2,1,2x,{16}1x,,3,,
3h[1:1],,,,,,,,,,4,,5,,6,,
{16}(193)7^2[4:1],(191),(189),(187),
(185)2^5[4:1],(183),(181),(179),
(177)5^8[4:1],(175),(173),(171),
(169)1[4:1],(167),(165)1x,(163)2,
(161)3,(159),(157)3x,(155),
(153)3,(151),(149)4,(147),
(145)4,(143),(141)4,(139),
(137)5,(135),(133)5,(131),
(129)5,(127),(125)6,(123),
(121)6,(119),(117)6,(115),
(113)7,(111),(109),(107),
(105)8,(103),(101),(99),
(98)1xqq3pp5[4:5]/5xqq7pp1b[4:5],,,,,,,,,,,,,,,,,,,,,,,,,,,,
(195)2h[4:1],,,,3h[4:1],,,,4h[2:1],,,,,,,,
5h[2:1],,,,,,,,6<4b[2:3],,,,,,,,,,,,
6,,,,6,,,,,,,,7,,,,8,,,,1h[2:1],,,,,,,,
5,,,,5,,,,4-8-3b[1:1]/6,,,,,,,,
6,,,,,,,,7h[2:1],,,,,,,,
2h[4:1],,,,6h[4:1],,,,1h[2:1],,,,,,,,
5h[4:1],,,,8h[4:1],,,,4h[1:1],,,,,,,,,,,,,,,,
8b,,,,2,,4,,3,4,,3,4,,3,,5,4,,5,4,,6,5,,6,5,,7h[4:1]/4,,,,4b,,,,
2,1,2,,8,1,8,1,,7,7x,,5,6,5,6,5,,7,8,7,8,7,,2,1,2,,3b/8b,,,,
7,,5,,6,5,,6,5,,6,,4,5,,4,5,,3,4,,3,4,,2,,,,
5h[8:1]/2b,,,5x-1[8:1],,,2h[8:1],,,2x-6[8:1],,,
8x,,8x,,8bx-3-6-2[2:1],,,,,,,,,,,,,,,,
35,,,,35,,5,,3,,5,,36,,,,64,,4,,6,,4,,63,,3,,63,,5,4,
6/3x,,,,64,,4,,6,,4,,63,,,,25,,3,4,3,4,3,,
3x-8[8:1]/4x-8[8:1],,34,,,,,,1x-4[8:1],,1,,6,,6,,
7-4b[8:1],,7,,1,,1,2,3-8[8:1],,3x,,5,,5,,
6-3b[8:1],,6,,7,,7x,8,1x,2,3,4,1x/5x,8,7,6,
{32}1x/5x,2x,3x,4x,5x,6x,7x,8x,1,2,3,4,5,6,7,8,
{8}1x-4-2b[2:1]/5x-8[4:1],,,,,,,,{1}Chf[1:2],,{8},,
{4}4x,4x,{8}4,B7/B6/E7,4,,4,5,
{16}4,,6x,6x,4,,6,5,6xh[8:1],,5,,6xh[8:1],,5,,
6xh[8:1],,4,,6xh[8:1],,4,,6xh[8:1],,3,,6x,,5x,,
4x,,3x,,5x,4x,{24}5x,6x,7x,{4}8x-2[8:1],B6/B5,
3x^5[8:1],B8/B1,6x-1b[8:1],B4/B3,8xv5b[8:1],C,
{16}2x,4,2,,6,4,6,,3,4,2,,6,5,7,,4,5,3,6,2,7,1,8,2,7,3,6,4b/5xb,,,,
7,5,7,4,7,,3,5,3,6,3,,7,5,6,,2,4,2,5,2,,6,4,6,3,6,,2,4,3,,
8,5,8,4,8,,4,6,5,6,,6,5,,47,,4-8-2-5[2:1]/7,,,,,,,,,,,,,,,,
6,5,6,7,6,,2,1,2,8,2,,5,4,6,,3,4,3,2,3,,7,8,7,1,7,,4,5,3,,
6,5,6,5,7/4x,,3,4,3,4,2/5x,,8,1,8,1,
7x-5-8[2:1]/2-4-1[2:1],,,,,,,,,,,,,,,,
{4}Ch[2:3]/B1,,B2/B3,,B4/B5/E5,,4x-1b[16:1],,
{8}6xh[4:1],5,4h[4:1],5,6h[4:1],5,4h[4:1],5,
6h[4:1],5,4h[4:1],5,6h[8:1],5,46,46,
3h[4:1],4,5h[4:1],4,3h[4:1],4,5h[4:1],4,
3h[8:1],4,3-5-1[4:1],4x,5x,6x,7x,,
{16}7-4[8:1],,,8,7,,1,,2-5[8:1],,,1,2,,7,,6-1[8:1],,,5,6,,4,,
34,,34,,25,,25,,1-5[8:1],,,8,1,,7,,
6-1[8:1],,,5,6,,4,,{1}4-8-3[2:1]/5-1-6[2:1],
{4}A5/A4/D6/D5f/D4/E6/E5/E4/B5/B4,,,,,,
8<4>8^6^4^3^2^1^8[4:7],,,,,,,,,,
{8}8,,,7,,,6,,,5,,,4h[4:1],,,,3,,,2,,,1,,,8,,,7h[4:1],,,,
65,,,45,,,34,,,2-7[8:3]/3-6[8:3],,,,,,,
1x/8x,,,2x/7x,,,3x-8[8:1]/6x-4-7[2:1],,A3f,,,,
{16},,,,1xb,2x,3x,4x,
{8}8/5x,,8,5x,8,4x,8,{16}2x,3x,
4x/8,,,,8,,,4x,8,,{24}4x,3x,2x,{16}8,,1x,,
8/1x,,,,8,,1x,,8,,2x,,8,,3x,4x,
8/5x,,,,8,,,4x,8,,{24}3x,4x,5x,{16}8,,6x,,
8/6x,,,,8,,,,8,,4x,,8,,3x,,8,,1x,2x,8,,2x,3x,8,,
3x,4x,8,,4x,5x,6x/8,,5x/7x,,4x/6x,,35,,26,,17,,28,,37,,46,
3,2,1,8,7,6,5,4xb-2-6[3:1],,,,,,,,Cf,,,,,,,,
{16}5xh,6x,7x,8x,1x,2x,3x,4x,5x,6x,7x,8x,1x,2x,3x,4x,
{24}5xh,6x,7x,8x,1x,2x,3x,4x,5x,6x,7x,8x,
{32}1xh,2x,3x,4x,5x,6x,7x,8x,1x,2x,3x,4x,5x,6x,7x,8x,
1x,2x,3x,4x,5x,6x,7x,8x,1x,2x,3x,4x,5x,6x,7x,8x,
1x,2x,3x,4x,5x,6x,7x,8x,1x,2x,3x,4x,5x,6x,7x,8x,
{48}1xh,2x,3x,4x,5x,6x,7x,8x,1x,2x,3x,4x,
{8}5xb,,4xh[8:3],5,5,5,6h[8:3],4,4,{16}4,3,{8}2h[8:3],7,7,7,
8h[4:1],1,1,{16}1,8,3,4,2,5,1,6,8,7,5,6,4,7,3,8,2,1,
2bw6b[4:1],,,,,,,,,,,,
8-3[8:1],7,6,5,{8}4-7[8:1]/8,,2x-5[8:1]/4x,1,2x/6x-1[8:1],7,2x/6x,{16}2x,3,
4/8x-4[8:1],,,,1/8-6[8:1],,1,1x,8,,{24}1x,2x,3x,{16}4x^1[8:1]/5,,,,
7-3[8:1]/4,,,,7/8x-4[8:1],,1x,,7-2[8:1]/8,,6,,3x/7,,3x,4,
5-1[8:1]/1x,,,,85,,8x,7,6/2x,,{24}2x,3x,4x,{16}5x/6-1[8:1],,,,
6v8[8:1]/4v2[8:1],,,,46,,,,7x/3x,,73,,48,,48,,5h[8:1]/1,,8,7,62,,2,3,
4-1[8:1]/8,,7,6,45,,,,6-8[8:1],4,5,,6b,,2-8[8:1],4,3,,2b,,
{24}7,6,5,{16}4,,3x/2,,2,,35,,4,,57,,6,,
{4}7qq4[2:1]/8pp3[2:1],78,,,,
{16}1-5[8:1]/8,,,,1,,6,7,8-4[8:1],,
{24}4,3,2,{16}1v6[8:1],,,,Cf/1xb,,,,7x-4[8:1],,,,
7-3[8:1]/2-7[8:1],,,,7/2-6[8:1],,,,2,,,,5,,5,4,5,,{24}3,4,3,
{16}4-8[8:1],,,,4/5-1[8:1],,,,5/6,,,,67,,67,,78,,78,,
1-3[8:1],,6,6,1-7[8:1],,5,5,1-3[8:1],,4,4,1,,,,
8b,,48,37,26,15,8xb,,51,62,73,84,1xb>6[2:1],,,,
5x,,,,6x,,,,7x,,,,8b,,,,3,5,3,5,3,5,3,5,2,6,2,6,2,6,2,6,
1,7,1,7,1,7,1,7,1,7,1,7,2,8,2,8,3,7,3,7,3,7,3,7,
1,6,1,6,2,5,2,5,3x-7[8:1],,,,3x-8[8:1]*-6[8:1],,,,3xw7[8:1],,,,3x,,,,
4x,5x,4,5,4,5,4,5,3,6,3,6,3,6,3,6,2,7,2,7,2,7,2,7,
4,8,4,8,3,7,3,7,2,6,2,6,2,6,2,6,3,1,3,1,4,8,4,8,
5-2[8:1]/7x,,,,5b,,6-1[8:1],,,,6b,,5,,5,,48`,,48,,48,,48,37,
2v5[8:1]/6v1[8:1],,,,26,,,,4x,8x,4,8,3,7,3,7,1,2,3,4,8,7,6,5,
2,6,2,6,3,7,3,7,4,3,2,1,5,6,7,8,4,3,2,1,48,7,6,5,48,37,26,15,
48,7,6,5,4x,8,3,7,2,6,1,5,4x/8x,1,2,3,48,7,6,5,
4x,8,5,1,6,2,7,3,4x/8x,7,6,5,48,1,2,3,
4x,8,5,1,4,8,3,7,2x/6x,1,8,7,26,15,48,37,{1}2b-5-7[2:1]/6b-1-3[2:1],
B1/B2/B3/B4/B5/B6/B7/B8/E1/E2/E3/E4/E5/E6/E7/E8/Cf,
{4}6xh[4:1],5xh[4:1],4xh[4:1],3xh[4:1],
