&title=7 Days to Know
&artist=THOM
&first=0
&des=TK
&clock_count=4
&lv_5=13
&inote_5=(135)
{4},,,,
{8},,,,,3h[8:6],,,
{8}5h[8:3],,,,,4h[8:5],,,
{8}6h[8:3],,,,5,6h[8:6],,,
{8}4h[8:3],,,,,5h[8:5],,,
{8}3h[8:3],,,,,3h[8:6],,,
{8}4h[8:3],,,,,4h[8:5],,,
{8}5h[8:3],,,,4,6h[8:5],,,
{8}5h[8:3],,,,8pp5[8:4],,,,
{8},,4,3,2,7,8,1,
{8}2pp3[8:2],,7h[8:2],,,8,1,2,
{8}3v1[8:2],,6h[8:2],,,5,4,3,
{8}2v4[8:2],,7h[8:2],,,6,5,4,
{8}3v2[8:2],,1h[8:2],,,8,7,6,
{8}5pp6[8:2],,2h[8:2],,,1,8,7,
{8}6v8[8:2],,3h[8:2],,,4,5,6,
{8}7q1[8:3],,4h[8:2],,,,4,35,
{16}6,4,6,4,{8}6,37,,2,21,21,
{8}2,{16}2,1,{8}2,2/8h[8:1],2,2,28,28,
{8}2,{16}2,8,{8}2,2/7h[8:1],2,2,27,27,
{8}2,{16}2,7,{8}2,2/6h[8:1],2,2,26,26,
{8}2,{16}2v5[8:1],6,{8}2,,,6,64,64,
{8}6,{16}6,4,{8}6,6/3h[8:1],6,6,63,63,
{8}6,{16}6,3,{8}6,6/2h[8:1],,,,E1,
{8}B7,2xh[128:1],,C,E6,4xh[128:1],,,
{8},27,3>1[8:1]/6<8[8:1],45,3b/6b,,1-3[8:1],7-1[8:1],
{8}1<5[32:6],7,4>1[8:1],3,4,,61,7/8-3[8:1],
{8},78,6-8[8:1],4,6-4[8:1],,6/2-4[8:1]*-5[8:1],,
{8}2,,,56,7<5[8:1]/4>2[8:1],,74,,
{8}1-3[8:1],6-8[8:1],1-5b[8:1],6,1,,8-6[8:1],2-8[8:1],
{8}8>4[32:6],2,5-1[8:1],6,5,,38,1-5[8:1]/2-5[8:1],
{8},12,,7,2-4[8:1],,2-8[8:1],6-2[8:1],
{8}2<4[8:3],6,3,2,{32}3x,B3,C,B7,{8},E1,E2,
{8}E3,5-7[8:1],2v4[8:1],5,2,{16},7,7,,6/8<5[8:1],,
{16},1x,{8},2-5[8:1],1,2-8[8:1],,2,5-7[8:1],
{8},5/1-7[8:1],2-4[8:1],1,2,,7<5[8:1],5>3[8:1],
{8}7,1V35[8:2],,1,7-5[8:1],,,,
{8}27,8-6[8:1]*-5[8:1],,8-2b[8:1]*-3b[8:1],,8,,,
{8}2-5[8:1],8-2[8:1],2<4[16:4],8,4pp5[16:3],3,,2,
{8}1-5[8:1],,1,6-2<7b[8:2],,,,,
{8}2,3V17[8:2],,7V53[8:2],5,,E8,E7,
{8}E6,,15,6-4[8:1]/2-8[8:1],,2b/6b,,,
{8}1-3[8:1],6-4[8:1],1-6[8:1],6V83[8:2],1,5v7[8:1],,5,
{8}2,,26,3-5[8:1]/7-1[8:1],,37,,,
{8}8<6[8:1],3<5[8:1],8-3[8:1],3>5b[8:2],8,4-8[8:1],,4,
{8}7,,26,3-8[8:1]/7-4[8:1],,37,,,
{8}2-8[8:1],6-1[8:1],2>5[8:1],6p2[8:1],2<4b[8:2],6,,3,
{8}3,,5pp4[8:2],3,5/4>5[8:4],,,,
{8},,,2/5<4[8:5],3/4h[8:2],,,,
{8}6b,,,,,E6,E4,E7,
{8}E5,,7xh[8:1],,,E5,E7,E4,
{8}E6,,3xh[8:1],,,E4,E6,E3,
{8}E5,,2xh[8:1],,,E5,E3,E6,
{8}E4,,6xh[8:1],,,E1,E7,E2,
{8}E8,,2x,,3x,E1,E3,E8,
{8}E2,,7,6,4-8[8:1]/5,,7p3[8:1],7,
{8}1-4[8:1],,7-3[8:1],7,8p4>1b[8:2],,,,
{8},16,7z3[8:1]/8s4[8:1],16,7b/8b,,2-6[8:1],5-2[8:1],
{8}2<4[8:2],5,3,2,{32}3bx,E3,B1,E8,{8},57,1/8v3[8:1],
{8},28,1-6[8:1],4,1-4[8:1]/5-8[8:1],,1-6[8:1]/5-2[8:1],,
{8}1/5,,4p8b[8:1]/5pp7b[8:1],6,4-1[8:1]/5-2[8:1],,45,,
{8}8-5[8:1],4-7[8:1],8>3b[8:1],4,8,,7-4[8:1],3-7[8:1],
{8}7>5[8:2],3,6,5,{32}6xb,E7,B8,E2,{8},12,7-3[8:1]/5,
{8},74,5-1b[8:1]*-8b[8:1],,5,,3v5[8:1],8-3[8:1],
{8}3-1-7-5[16:5],8,4-8b[8:1],5,4,,E2,E3,
{8}E4,6<1[8:1],,46,2>5[8:1],,26,8-5[8:1],
{8},8/1-5[8:1],3>8[8:1],1,3,,68,1-5[8:1]/2,
{8},17,6-1[8:1],4,6,,2>5[8:1],5p1[8:1],
{8}2,7V58[8:2],,7,4-1[8:1],,,,
{8}36,1-5[8:1]/8-6[8:1],,1-3b[8:1]/8-4b[8:1],,18,,,
{8}2-4[8:1],6-1[8:1],2-6[8:1],6V84b[8:2],2,5-1[8:1],,5,
{8}2-5[8:1],,1,8-3b[8:1],7,,,,
{8}3,4V28[8:2],,8V64b[8:2],6,,,,
{8}8,7<5>3[8:2],,3,2,1h[8:3],,,
{8}4,,,,,2h[8:3],,,
{8}5,,E7,E8,E1,3h[8:3],,,
{8}6,,,,,4h[8:3],,,
{8}7,,E6,E2,,5h[8:3],,,
{8}1,,,,,6h[8:3],,,
{8}2,,E3,E4,E5,7h[8:3],B2,B3,
{8}B4,,8h[8:2],B4,Ch[8:12],,,,
{8},,,,,,,,
{8},,,,,,,,
{8},,,,,,,,
