&title=UFO
&artist=Mili
&first=1.02
&des=Efoserp
&lv_5=13+
&inote_5=(120)
{4}3-1[8:1],5,7-5[8:1],1,
{4}2-8[8:1],4,6-4[8:1],8,
{4}3-1[8:1],5,7-5[8:1],1,
{4}1-7[8:1]/6,1qq4[4:1]/3,1/6,7-5[8:1],
{4}3qq1[8:1],8-4[8:1],3qq1[8:1],8,
{4}6pp8[8:1],1-5[8:1],6pp8[8:1],1,
{2}5-1[8:1]/2-4[8:1],8-4[8:1]/3-1[8:1],
{4}8-3[8:1],8-5[8:1],8qq3[4:1],,
{4}1qq7[8:1],4-8[8:1],1qq7[8:1],4,
{4}2pp4[8:1],7-3[8:1],2pp4[8:1],7,
{2}5-2[8:1]/1-6[8:1],8-3[8:1]/4-7[8:1],
{4}1qq6[2:1]/5qq2[2:1],,,,
{4}1>5[4:1],5<1[4:1],1>5[4:1],5,
{4}8V64[4:1],4V28[4:1],8V64[4:1],4,
{4}8>3[4:1],3<7[4:1],7>3[4:1],3<8[4:1],
{4}8>5[4:1],5qq1[16:5]*pp1[16:5],,,
{12}5b<3[4:1]/2b,,3,5/3>5[4:1],,6,6,,2,2,,8,
{12}8>3[8:1],,6,6-2[8:1],,4,4-8[8:1],,6,6,,,
{12}4>6[4:1]/7,,6,4/6<4[4:1],,3,3,,7,7,,1,
{12}1<6[8:1],,4,4-8[8:1],,5,5-1[8:1],,2,2,,,
{4}3-5[8:1]/7-5[8:1],,2-5[8:1]/8-5[8:1],,
{4}7v4[4:1],4<8[4:1],8qq4[2:1]*qq3[2:1],,
{4},,4-8[8:1],,
{4}1-7[8:1]/6,1bqq4[4:1]/3,1/6,8,
{4}3/5-1[8:1],5/7,3/5-1[8:1],5/8,
{4}6/4-8[8:1],4/2,6/4-8[8:1],4/1,
{4}7<5[8:1]/4>2[8:1],7/4-8[8:1],4-1[8:1]/1,4/7,
{4}2>4[8:1]/5<7[8:1],2/5-1[8:1],5-8[8:1]/8,5/2<3[4:3],
{4},,,8-4[8:1]*-2[8:1],
{4}8-6[8:1],8/1-3[8:1]*-5[8:1],1-7[8:1],1/2pp3[4:1],
{4}2,6pp7[4:1],6,1w5[4:3],
{1}1,
{4}4qq1[16:9]/5,8h,6,5,
{4}7q1[16:9]/2,3,4h[4:1],,
{4}5pp8[16:9]/4,1h,3,1,
{12}2p7[16:9]/7,,,,,,,,,,,5,
{12}2v5[8:1],3,4,2,,4,7v4[8:1],6,5,7,,1q5[8:1],
{12}1v6[8:1],1,,,,8p3[8:1],8-5[8:1],8,,,,8,
{12}7-4[8:1],,2,1-5[8:1],,7,8-4[8:1],,2,1,,1,
{12}2/4,3,4,5/7,6,5,1/4,2/5,3/6,{24}4,7,3,6,2,5,
{12}1bqq3[16:5],,,7,5,6,7b-4[8:1]*-5[8:1],,,7pp4[16:5],,,
{4}7b/3b>4[16:5],3,1w5[8:1],1b,
{4}7b/8b-4[8:1],8/1-5[8:1],2/1-4[8:1],1qq5[16:5]/7,
{12}1b/2b,,3h[6:1],,,,4v1[8:1]*v7[8:1]/5,,,,,,
{1}6q1[2:1]/2h[4:3],
{1}7p4[2:1]/3h[4:3],
{1}8<1[2:1]/4h[4:3],
{1}3qq4[2:1]/5pp4[2:1],
{4}2-6[4:13],7,6,5,
{4}4,3,4,5,
{4}7,8,1,2,
{12}1,,,8,,,1,,,1/2,3/4,5/6,
{12}7bpp4[4:1]/8b,,7,2<3[4:1],3,3,2,,1,1pp5[4:1],,6,
{12}1/7>6[4:1],8,8,7,,8,8w4[8:1],,,,,1,
{12}2qq5[4:1],,2,7>6[4:1],6,6,7,,8,8,,3,
{12}1/3-8[8:1],,7,7<4[8:1],,2,2-6[8:1],,8,8,,7,
{12}7qq4[4:1],,7,1,8,8,1,2,3,4/8,,7,
{12}5,6,4,{8}3qq1[4:1]*V51[4:1],5,{12},,,,,3,
{12}3/7-4[8:1],,3,3-1[8:1],,,8-6[8:1],,,4-2[8:1],,,
{12}7-5[8:1],,3,3-1[8:1],,6,6,,3,3q6[4:3]*<6[4:3],,,
{1},
{12}2-4[8:1],,6,6-8[8:1],,3,3,,6,6p3[4:3]*>3[4:3],,,
{1},
{12}7-5[8:1],,1,1-7[8:1],,3,3-1[8:1],,5,5-3[8:1],,7,
{12}7p1[4:1],,1,1q8[4:1],,8,8,,3,3,,,
{12}1<7[8:1]/6,,4,1>3[8:1]/4,,6,6/1-5[8:1],,,1qq5[4:3]*pp5[4:3],,,
{1},
{12}4b>6[4:1]/7b,,6,4/6<4[4:1],,3,3,,7,7,,1,
{12}1<6[8:1],,3,3-7[8:1],,5,5-1[8:1]*-1[8:1],,,5b,,,
{12}5<3[4:1]/2,,3,5/3>5[4:1],,6,6,,2,2,,8,
{12}8>3[8:1],,5,5-1[8:1],,4,4-8[8:1],,,4,,,
{12}3>6[4:1]/7,,6,6<3[4:1],,5,5,,7,7,,8,
{12}8-6[8:1],,4,4-2[8:1],,8,8-6[8:1],,4,4,,,
{12}6<3[4:1]/2,,3,3>6[4:1],,4,4,,2,2,,1,
{4}1-7[8:1]/6,1bqq4[4:1]/3,1/6,{12}8,,,
{4}6h[6:1],5h[6:1],7h[6:1],5h[6:1],
{4}6h[6:1],3h[6:1],4h[6:1],{12}1,2,3,
{4}5h[6:1],2h[6:1],4h[6:1],2h[6:1],
{4}5h[6:1],3h[6:1],7h[6:1],5h[6:1],
{4}6h[6:1],5h[6:1],7h[6:1],5h[6:1],
{4}6h[6:1],3h[6:1],4h[6:1],{12}1,2,3,
{4}5h[6:1],2h[6:1],4h[6:1],2h[6:1],
{4}5h[6:1],3h[6:1],6,4/5,
E
