&title=IGNITE
&artist=藍井エイル 「ソードアート・オンライン」より
&first=0.02
&des=Phantom's Bullet
&lv_5=13+
&inote_5=(171){4},,,,,,,,{1}3h[1:1]/1<8<7<6>5>4[400:299],
{2},E7/B6/B7,
{1}6h[1:1]/8>1>2>3<4<5[400:299],
{2},B2/B3/E3,
{1}8<7<6>5>4>3>2<1<8[1:1],
{2},C,
{1}2z6[2:1]/8s4[2:1],
{8}5/4,3/6,7/2,8-4[8:1]/1-5[8:1],2/7,{64}8/1,Cf,{4},{16},{32},{4}2h[4:1]/7V53[16:3],
{8}7,1V37[4:1],,4,5,6h[8:3],
,,{4}8>4[4:1],4<8[4:1],8q2[8:3],
{8}5h[2:1],,,,,2/6,3/7,8pp5[8:3]/4>6[8:3],
,,,,,,,,{4}3/8<4[2:1],
3,3,3,
3/4q1[2:1],3,3,3,
3/1qq5[4:3],3,3,3,
3,3,3,{8}7/3,,
{4}7/4>8[2:1],7,7,{8}7,,
{4}7/8q5[2:1],7,7,7,
7/5p1[8:3],7,7,7,
1w5[4:1],,,Ch[8:1],
7x,7/4,7/5>2[8:1],7/5,
6,{8}6,2,{4}6>3[8:1],6/1,
1,4/1,2/4<7[8:1],2/4,
3,{8}7,7,3<6[8:1],7,{4}3,
8,{8}7/5,6,4-8[8:1],3,{4}2/4,
1,{8}4/2<4[4:1],5,{2}6h[4:1],
{8}7/3,3/7<4[8:1],{32},,,,3,2,1,8,,,,,,,,,{8}2/6,6/2>5[8:1],
{32},,,,6,7,8,1,,,,,,,,,{8}7/2,{24}5,4,5,{8}4,3/6,
7x,7-4[8:1],,3/7,{4}2-6[8:1],{8}7/2,8-4[8:1],
,2/8,{4}1>4-6-2[16:5],{2}1/5h[4:1],
{8}2x,2-5[8:1],,6/2,{4}7-3[8:1],{8}2/7,1-5[8:1],
,7/1,{4}8q1[16:5],{2}8/4h[4:1],
{4}2h[4:1],4h[4:1],{2}5>2[8:1],
{8}7,7h[4:1],,5,{2}4<7[8:1],
{8}2,2h[4:1]/7h[4:1],,,{2}8-5[8:1]/1-4[8:1],
{4}5x/1x,{8}3/7,7/3,6/2,6/2,5/1,5/1,
{16}2,4,3,5,4,6,5,7,1,8,2-6[8:1],7,3,6,{8}2b,
,7x,5x,4x,2-5[8:1],5,2,{32}6b<4[4:1],7,{16}8h[16:5],
,,,,,,,,{4}5<3[4:1],4h[4:1],
{8},4,4-7[8:1],8,4-8[8:1],8-3[8:1],4,6<4[4:1],
,,{4}5,5<3[4:1],4,
4<1p3[8:3],2,{2}2h[4:1],
{4}5/1h[4:1],{32}5,6,7,8,1,2,3,4,{4}5xh[4:1],{32}2,3,4,5,6,7,8,1,
{4}2xh[4:1],{32}6,7,8,1,2,3,4,5,{4}6xh[4:1],{32}3,4,5,6,7,8,1,2,
{8}3/6,1-3[8:1]/8-4[8:1],,8-6[8:1]/1-5[8:1],,8/1,,2/7,
,2x,4x,5x,7-4[8:1],4,7,{32}3b>5[4:1],2,{16}1h[16:5],
,,,,,,,,{4}4>6[4:1],5h[4:1],
{8},5,5-2[8:1],1,5-1[8:1],1-6[8:1],5,3>5[4:1],
,,{4}4,4>6[4:1],5,
5>8q6[8:3],7,{2}7h[4:1],
{4}4/8xh[4:1],{32}4,3,2,1,8,7,6,5,{4}4xh[4:1],{32}7,6,5,4,3,2,1,8,
{4}7xh[4:1],{32}3,2,1,8,7,6,5,4,{4}3xh[4:1],{32}6,5,4,3,2,1,8,7,
{8}6/3,8-6[8:1]/1-5[8:1],,1-3[8:1]/8-4[8:1],,8/1p8[4:1],,1/8<1[8:3],
,,,Cf,,,,1/7,
{4}2V47[16:3],{8}2,8-4[8:1],,8>3[8:1],,6/8<5[8:1],
,2/8p4[8:1]*v5[8:1],,8,,,{4}2/6,
7V52[16:3],{8}7,1-5[8:1],,1<6[8:1],,3/1>4[8:1],
,7/1q5[8:1]*v4[8:1],,1,,3/7,,1/8,
{16}6,5,{8}6,{16}3,4,{8}3,{16}7,5,{8}6,{16}2,4,{8}3,
1/8,7/5,6/4,5/3,4/2,1/8,7/2,3/6,
{16}2b,4,3,6,5,7,1b,8,4,6,3,5,2b,4,3,6,
5,7,8b,7,4,5,2,1,{8}2,3-6b[8:1]`7-2[8:1],8/4,3b/7b,
E
