&title=四月の雨
&artist=cubesato
&first=0.04
&des=Rainy day
&wholebpm=158
&genre=maimai
&cabinet=SD
&des_6=Rainy Day
&lv_6=13+
&inote_6=(158)
{1},,
{16}2h[4:1],,,,
5,,6,,7,,8z4[8:4],,1s5[8:3],,8,,1,,,,,,,,
{16}7,,,,5/4<1[8:3],,3,,4/2,,,,,,,,
{16}2,,,,4/5>8[8:3],,6,,7/5,,,,,,,,
{16}7,,6,,5/4-8[8:1],,3,,2/4,,,,7,,,,8/2,,1,,1pp5[8:5],,,,1,,,,8-6[8:1],,,,8,,,,,,,,
{32}2h[4:1],,,,4,,,,5qq5[4:1],,,,6h[8:3],,,,
{4}5-1[8:1],,
{32}7h[4:1],,,,5,,,,4pp4[4:1],,,,3h[8:3],,,,
{4}4-8[8:1],,
{16}1/6,,7,8,7-3[8:1],,46,,7,,2,,1s5[4:1],,4,,1,,,,7-3[8:1],,,,7,,
5,,4-8[8:1],,3,,4/2,
{16},,,4h[4:1],,,,2,,1,,8z4[4:1],,3,,8,,,,2-6[8:1],,,,
{4}2,,
{16}52,,3,4,3-5[8:1],,82,,3,,7,,8qq4[8:5],,1,,2,,,,3-1[8:1],,,,3,,,,,,,,
{32}2h[4:1],,,,4,,,,5qq5[4:1],,,,6h[8:3],,,,
{4}5-1[8:1],,
{32}7h[4:1],,,,5,,,,4pp4[4:1],,,,3h[8:3],,,,
{4}4-8[8:1],,
{16}1h[8:1],,7h[8:1],,1,2,3h[8:1],,
8h[8:1],,2h[8:1],,8,7,6h[8:1],,
2h[8:1],,5h[8:1],,2,3,4h[8:1],,
7h[8:1],,2h[8:1],,7,6,5h[8:1],,
3h[8:1],,1h[8:1],,3,4,5h[8:1],,
8h[8:1],,2h[8:1],,6,5,4h[8:1],,
1h[8:1],,7h[8:1],,3,4,5h[8:1],,
{16}1b,,8,,72,,,,
{16}1-5[8:1],,8,,17,,,6,6<1[8:1],,5,,64,,,,
2>5[8:1]/1,,8,,27,,,6,6-2[8:1],,5,,64,,,,
4-8[8:1],,5,,46,,,7,7<4[8:1],,8,,71,,,,
3,4,3,4,2,5,2,5,1,6,1,6,
{32}8,1,2,3,4,5,6,7,
{16}8-4[8:1],,,,82,,,3,3>8[8:1],,4,,35,,,,
7<4[8:1]/8,,1,,72,,,3,3-7[8:1],,4,,35,,,,
5-1[8:1],,4,,53,,,2,2>5[8:1],,1,,28,,,,
6,5,6,5,7,4,7,4,8,3,8,3,
{32}1,8,7,6,5,4,3,2,
{16}1-5[8:1],,,,1-3[8:1]/6,,4,,1-5[8:1]/6,7,8,,1/3,,,,
7-3[8:1],,,,7-5[8:1]/2,,4,,7-3[8:1]/2,1,8,,7/5,,,,
{16}8-4[8:1],,,,8-6[8:1]/3,,5,,8-4[8:1]/3,2,1,,8/6,,,,
2-6[8:1],,,,2/7,,5,,
{24}7,8,1,2,3,4,5,6,7,8,1,2,
{16}3-7[8:1],,,4,3,,6,,8-4[8:1],,2,,8,,,,
6-2[8:1],,,5,6,,3,,1-5[8:1],,7,,1,,,,
3-7[8:1],,,4,3,,6,,8-4[8:1],,2,,8,,,,
5,,1,,8,2,6,3,7,1,6,4,5,2,7,1,
{8}8<3[4:1],2,3V57[4:1],,8,,
3V17[4:1],,7V53[4:1],,5V71[4:1],,,,
4V28[4:1],,8V24[4:1],,6-8[8:1],,,,
3V17[4:1],,7V51[4:1],,5V71[4:1],,,,
4V28[4:1],,8v5[4:1],,6-8[8:1],,,,
2>6[4:1],,6>2[4:1],,8-4[8:1],,,,
6<2[4:1],,2<6[4:1],,
4-8[8:1],,,,6,6,
{16}1,5,1,5,2,6,3,7,
{32}4-8[8:1],5,6,7,8,1,2,3,4,,,,,,,,
{16}1-5[8:1],,,,1/7V15[4:1],,7,,7/3>7[4:1],,,,3,,,,
6-2[8:1],,,,6/4V62[4:1],,4,,4/8<4[4:1],,,,8,,,,
8-4[8:1],,,,8/6V84[4:1],,6,,6/2<6[4:1],,,,2,,,,
5-1[8:1],,,,5/3V51[4:1],,3,,3/7<3[4:1],,,,7,,,,
{16}1,,,,7-5[8:1],,3-7[8:1],,7V15[4:1],,,,,,,,
7,,,,4-2[8:1],,8-4[8:1],,4V62[4:1],,,,,,,,
3,,,,8-6[8:1],,8-2[8:1],,8-4[8:1],,,,,,,,
{32}1w5[8:1],2,3,4,5,6,7,8,
{16}1,,,,37,,46,,5-1[8:1],,,,
{1}5bpp4[4:13],,,,
{8}6/4,6/4,6/4,6h[8:3]/4h[8:3],,,,,
{8}3/5,3/5,3/5,3h[8:3]/5h[8:3],,,,,
{8}6h[4:1]/5-1[8:1],,5,,3h[4:1]/4-7[8:1],,4,,8h[4:1]/6-2[8:1],,6,,1-5[8:1],,8b/1b,,
{16}3/7,,4,6,5,,7/8,,
{24}1-5[8:1],2,3,4,,,1,,,4,,,
{16}2/7,,1,5,3,,4/6,,
{24}5>2[8:1],6,7,8,,,5,,,7,,,
{16}6/8,,5,2,7,,1/8,,
{24}2-6[8:1],3,4,5,,,2,,,4,,,
{16}3/7,,6,5,6<1[8:1],,7,,
{16}6/4-8[8:1],,5,,46,,5,,
{24}1-5[8:1],2,3,4h[8:1],,,1,,,,,,
{24}4<7[8:1],3,2,1h[8:1],,,4,,,,,,
{24}1,8,7,6,5,4,3-8[8:1]*-6[8:1],,,,,,3,,,,,,
{4}5/1,
{24}1-5[8:1]/5-1[8:1],2/6,37,48,,,
{24}1V37[4:1]/5V73[4:1],,,,,,
{4}1/5,,
{24}8-4[8:1]/4-8[8:1],7/3,62,51,,,
{24}8V63[4:1]/4V27[4:1],,,,,,
{4}8/4,,
{24}1-5[8:1],2,3,4,,,
{16}1,,4,,4>1[8:1],,5,,4/6,,7,,
{24}7-3[8:1],6,5,4,,,
{16}7,,4,,4<7[8:1],,3,,4/2,,1,,
{24}1-5[8:1],2,3,4,,,
{16}1,,4,,4>1[8:1],,5,,4/6,,7,,
{16}8/7,,2,1,2-7[8:1],,8,,
{16}2-5[8:1],,6,,2,,8,,
{24}4-8[8:1],3,2,1h[8:1],,,4,,,,,,
{24}1<6[8:1],2,3,4h[8:1],,,1,,,,,,
{24}4,5,6,7,8,1,2-5[8:1]*-7[8:1],,,,,,2,,,,,,
{4}8/4,
{24}8-4[6:1],7,6,5,4V26[4:1],,8,,,,,,5,,,5,,,5,,,,,,
{24}1-5[6:1],2,3,4,5V73[4:1],,1,,,,,,4,,,4,,,4,,,,,,
{8}4h[4:3]/5,,6,7,8,6,7,,
8h[4:3],,3,2,1,3,2,,
1h[4:3],,7,6,5,7,6,,
5h[8:7],,3,2,1,1-5[8:1],1,1,
