&title=降り続く雨の街で
&artist=三輪学
&first=1.135
&des=Zeroflies
&lv_5=11+
&inote_5=(108){4},,4,{8}4/5,3,
2,1,{4}8,8/1-4[4:7],8,
{1}6,
{4},,5,{8}5/4,6,
7,8,{4}1,1/8-5[4:7],4,
{1}2,
{4},,1h[4:1],{8}5,6,
7,8,{4}1,3/1,8,
7,6/8,{2}1,
{4}8/2h[4:1],7b,,,,5<8[8:3],
{8}5,4,3,2,
{4}1-5[16:3],8-6[16:3],{2}2-4[16:3],
{4},,,,,4>1[8:3],
{8}4,5,6,7,
{4}8-4[16:3],1-3[16:3],{2}7-5[16:3],
{4},,,,,1h[4:1],
{8}5,6,7,8,
{4}1,3/8,7,6,
3/5,2,1,8/7,
1,2qq4[1:1],{2}5b,
{4}6h[4:1],{8},,,,8<2[4:5],2,
{4}8,,,1h[2:1],
{8},,,,8b/2b,1,8,7,
6/1,5,4/2,1,8,7,6/1,5,
4/2,1,8,7,1/6,5,4/2,1,
8,7,{4}6h[4:1],1b,{8}7,8,
1,2,{4}3h[8:1]/1-4[8:1],1/8-5[8:1],8/6p4[2:1],
{2}3h[16:3],{4}2qq5[2:1],7h[4:1],
,7,{8}3/8h[4:1],4,5,7,
8/6h[4:1],1,2,5,3/4h[4:1],2,1-4[4:1],2,
1/8-5[4:1],7,{4}8,,1/8-5[8:1],
8/2>4[8:1],2/7<5[8:1],{8}7/1-4[8:1],8,{4}5h[8:3],
,5pp6[4:1],5qq4[4:1],5-1[8:1],
{8}5,4,3,2,8/1,7,6,5,
4,3,{4}2/6,{8}8b,7,6/1,5,
4/2,1h[8:1],8,7,6/1,5,4/2,1h[8:1],
8,7,6/1,5,4/1h[8:1],3,4/1,5,
6/1h[8:1],7,{4}8/1w5[8:1],1b,{8}4,3,
5<8[8:1],6,{4}5/4>1[8:1],5/4,6h[4:1],
{8}1h[8:5],7,6,5-8[8:1],{4}4,{8}3h[2:1],2,
1-4[8:1],8,1,2,5b/1b,6,7,8,
8/3,7,6/4,3,2,1,6/1-6[8:1],2,
{4}3/1-4[8:1],5/1<6[8:1],3/1>4[8:1],5/1,
7/5-1[8:1],5/8<4[2:1],{8}8/4,3,2,1,
8,8,{4}8/6,8-4[8:1],8>2[16:1],
{32}4/8z4[2:1],5,{16}6,,,,,,,,,,,,1h[16:19],,,,,,,,,,,,,,,,,,,{4}8-5[1:3],
8h[4:3],,,,1,
{2}3,
{4},,,,1-4[1:3],
1h[4:3],,,,5,
{2}7,
{4},,,,8-3[4:3],
,,2-6[4:3],
,,{2}7-4[4:3],
{4},,5-1[4:3],5b,
,,,1qq6[2:1],
{2}1,{4}7<2[4:5],7h[4:1],
,4>2[2:1],,,,,,8pp3[2:1],
{2}8,{4}2>7[4:5],2h[4:1],
,5<7[2:1],,,,,,8,
8h[4:3],,,7h[2:1],
,,6h[2:1]/1pp3[4:1],1,
,5h[2:1]/1p4[4:1],{2}1,
{4}5h[#1.666656]/3h[2:1],,,(92)2,
{16},,,7,,8<2[8:5],{32},,8,7,{2}6h[8:5],
{8},,7,8/1,{2}8qq5[0.5435##1.413]/1pp4[0.5435##1.413],
E
