&title=Crescent Moon
&artist=uma/モリモリあつし
&first=-1.46
&des=Jack
&lv_5=14+
&inote_5=(175)
{1},
{4},,2h[8:2],4b>5[8:4]*p5[8:4],,,,
{8}3h[8:2]/4h[8:2],,,,7h[8:2]/5h[8:2],,,,2h[8:2]/4p7[32:6],,4>8[32:6],,4,,
6,7h[8:2],4,3,4,6,54,,3h[16:1],3h[16:1]
,5,5,2,2,7,7,5,6,2h[8:1]/5h[8:1],,
3h[8:1]/4h[8:1],,{16}2,5,3,4,
{8}2>5[8:1],2,8h[8:1],,
{16}7,5,6,5,
{8}8h[8:1],,
{16}2,4,3,4,
{8}1h[8:1],,
{16}7qq1[8:3],5,6,5,7b,,,,,,,,
{8}
4>7[8:3],,,7q4[8:2],7,,6,,5<1[16:3],,5q2[16:3],,5,,,,
8<3[8:3],,,3q8[8:2],3,,2,,1>5[16:3],1,1q6[16:3],,1,,,
4,4>7[8:3],,,7q4[8:2],7,,,6,5<3[16:5]*q3[16:5],,,,,,
{24}4,5,4,
{8}7h[8:1],
{16}5h[8:1],,,2h[8:1]/4h[8:1],,,75,,
{16}5h[8:1]/2h[8:1],,,7h[8:1]/4h[8:1],,,62,,
{16}4h[8:1]/7h[8:1],,,2h[8:1]/5h[8:1],,,37,,
3-8[8:1]/7-4[8:1],,,,37,,,,
3h[16:2],,,,3h[16:2],,,,3h[16:2],,,,3h[16:2],,,,
2h[16:2]/4,,,,2h[16:2]/3,,,,2h[16:2]/1,,,,2h[8:1]/8,,,,
7h[16:2],,,,7h[16:2],,,,7h[16:2],,,,7h[16:2],,,,
7h[16:2]/5,,,,7h[16:2]/6,,,,7-4[8:1]/8-4[8:1],,,,,,,,
{8}6h[8:1],5,6h[8:1],7,6h[8:1],4,6h[8:1],8,
{8}3h[8:1],4,3h[8:1],2,3h[8:1],5,3h[8:1],1,
{16}3,5,3,5,4,6,4,6,3,5,2,6,1,7,3,5,1<2[8:3],,,,,,,,8w4[8:1],,,,8,,,,
7-3[8:1],,85,,,,,,
2,,2,4,,4,5,,
7-3[8:1],,84,,7b,,,,
21,,3,4,,6,5,,8w4[8:1],,17,,,,,,
28,,3,4,,6,5,,8-3[8:1]*-4[8:1],,17,,,,,,
75,,6,,5/3-5[32:3],,2,,
7b<4[8:1]*p3[8:1],,8,,,,,,
1,,2,4,3,5,4,,
6<1[8:1]*q2[8:1],,5,,,,,,
31,,2,4,3,5,4,,
5/7h[8:2],,
{24}1,2,3,
{16}4b,,7,7,5h[8:1],,4,4h[8:1],,2,2h[8:1],,
{24}1,8,7,6<5[8:3],5,4>5[8:3],3,2,1,8,,,,,,,,,,,,,,,
{16}28,,34,,6,5,6,,17,,3,4,2,,1,,
7,,65,,3,4,3,,82,,6,5,7,,8,,2-5[8:1],,3,,7-3[8:1],,6,,4,4,,2,2,,8b,,
4,6,5,6,3,5,4,5,2>5[8:1],4,3q7[8:1],4,2,,,,
2pp1[8:2],,,,62,,,,8-4[16:1],,,3-8[16:1],,,6,,
5pp4[8:2],,,,35,,,,1-5[32:2],,,6-1[32:2],,,3,,4,,3,,24,,3,4,
2,,6,57,,3,24,,
{32}1b>8[8:4]/8b<1[8:4],72,63,45,
{16},,,,,,,,,,,,,,
{8}6<3[8:4],,3,,4h[8:4],,,,3>5[8:4],,4,,3h[8:4],,,,4pp8[8:4],,3,,2,,1,
1h[8:5],,,3,,5,,37,,
{8}3>6[8:4],,5,,5h[8:2],,,,5<1[16:3],,4,4h[8:2],,1h[8:1],3h[8:1],8h[8:1],
5h[8:1],6h[8:1],3h[8:1],4h[8:1],6h[8:1],5h[8:1],3h[8:1],4h[8:1],
6bpp7[8:2]*qq5[8:2],,,,,
2,2,4,3-5[8:1],,5,,3-5[8:1],3,6,7,3-5[8:1],,
6,8-4[8:1],,5,3,2,1h[8:4]/4pp7[8:3],,,,,2,3,4b/8b<5[8:1],,,
2b-6[8:1],,2b/5b-8[8:1],,1bw5[8:1]/5b,,1b,,2,4,3,5,1,1,
24,3/5<3[8:2],46,57,,6,6,7,
8h[8:1],6,7h[8:1],5,6h[8:1],4,5h[8:1],3,6b<1[8:1]/2,,
2,4bqq5[8:6]*<4[8:14],,,,,,,,,,,,,,,,,,,
{16}4h[16:1],,4h[16:1],,5h[8:1]/6h[8:2],,,,,,4,,3h[8:2]/5h[8:1],,,,,,4,,
2h[8:1]/4h[8:1],,,,3h[8:1]/5h[8:1],,,,6h[8:3]/4h[8:1],,,,4,,,,
8h[8:3]/5h[8:1],,,,3,,,,2h[8:3]/5h[8:1],,,,4,,,,
{8}1h[8:1]/7h[8:1],,4h[8:1]/5h[8:1],,28,,
{16}6h[16:1],,4h[16:1],,3qq8[8:4]/5,,,,
{8}4,,5,,6,,4/3qq7[8:4],,5,,6,,6,,
{16}1,,24,,24,,1,4,2,,35,,35,,2,5,3,6,4,6,3,7,2,8,
{24}1,1,1,1,1,1,1,1,1,1,,,
{8}2-6[8:1],3,7-4[8:1]/2,8,74,
{24}3,2,1,
{8}8>3[8:1],8,
{24}4-1[8:1],5,6,
{8}7,4<7[8:1]*q8[8:1]/8,,4,,
{16}24,,3h[8:1],,1h[8:1],,,5,6,,3,,1h[8:1]/4,,,6,5,,2/8h[8:1],,
1-5[8:1],,6<1[8:1],,1>4[8:1],,6,,4q8[8:1]*<7[8:1],,,,,,,,
{8}2-6[8:1],3,7-4[8:1]/2,8,74,
{24}3,2,1,
{8}8>3[8:1],8,
{24}4b-1[8:1],5,6,
{8}7,4b/8,,7b-4[8:1]/8-4[8:1],,
{16}7/8b,,,,2h[8:1],,4,3,5,4,6,5,8h[8:1],,5,7,4,5,2,4,1h[8:1],,
3,2,5,4,7,6,8w4[8:1],,,,8b,,,,
{8}2-5[8:1],1,7-3[8:1]/2,8,7-4[8:1]/2,
{16}4,4,
{8}7,1,
{16}2-5[8:1],,
{8}5>2[8:1],
{16}2<7[8:1],,7V51[16:3],,6,,,,
{16}8,,6h[8:1],,1h[8:1],,4,3,6,,57,,8h[8:1]/4,,5,6,3,,2/8h[8:1],,
1-5[8:1],,6<1[8:1],,1>4[8:1],,6,,4-8[8:1]*-7[8:1],,,,,,,,
{8}3>8[8:1],2,7-4[8:1]/3,6,73,
{16}1,1,
{8}5,37,
{16}2b/4,,
{8}5/7b,
{16}2/4b,,6/8b,,2/7b,,,,
{16}4h[8:1],,7h[8:1],,5,6,8,4,2h[8:1],,4,3,1,5,7h[8:1],,
{16}5,4,3,2,
{8}1/6<1[8:1],5,
{24}1w5[8:1]/6,2,3,
{8}4,1b,,
{32}4h,3h,2h,1h,8h,7h,6h,5h,
{8}4h/8h[8:4],,,,6h[8:4],,,,4h[8:4],,,,2h[8:2],,4,,
35,,
{32}6h,5,,,
{16},,
{32}3h,4,,,
{16},,21,,,,
7h[16:3],,,5h[16:3],,,3,,3pp7[8:3],,,,1h[32:1],,,,
{8}2,,2,,2,,2,
{16}2,4,3,,,,
{8}34,,36,,3/8-4[8:1],,1/8b,,
{12}2,4,3,7,5,6,1,3,2,
{8}8b<5[8:2]*>3[8:2],,,,,,
{24}1b/8b,27,36,
{16}45,,
{16}3,4,2,8h[8:1],,5,
7,4,6,2,6,8,5,4,5,2,
6,5,7,1h[8:1],,4,
2,5,3,7,3,1,4,5,4,7,
{16}3,4,2,5,4,7,
4,5,2,6,5,7,
{24}2b,3,4,7,6,5,
{16}3,4,2,4,3,1,
5,6,8,6,5,7,
3,8,5,6,
{16}3,4,2,8h[8:1],,5,
7,4,6,2,6,8,5,4,5,2,
7b,,7,6,5/1b,,2,3,4/8b,,6V48[16:3]/2,,37,,26,,3,,2>5[8:1],1,,8,2,,
7,7h[8:1],,5,6,3,4,1,8h[8:1],,6,7,4,5,2,3,1>4[8:1],,,,
{24}1b/8b,7,6,
{16}5,,
{16}2,4,3,8h[8:1],,5,
7,4,6,2,6,8,5,4,5,2,
7,5,6,1h[8:1],,4,
2,5,3,7,3,1,4,5,4,7,
{16}3,4,2,5,4,7,
4,5,2,6,5,7,
{24}2b,3,4,7,6,5,
{16}3,4,2,4,3,1,
5,6,8,6,5,7,
3,8,5,6,
{16}3,4,2,8h[8:1],,5,
7,4,6,2,6,8,5,4,5,2,
{24}
8b,7,6,4b,3,2,
7b,6,5,3b,2,1,
8b,7,6,4b,3,2,
7b,6,5,3b,2,1,
{16}7b,,2,4,3,4,1,4,3h[8:1],,
7,5,6,5,8,5,6h[8:1],,
3,4,2,4,3,4,1w5[8:1],,,,1bqq3[8:12],,,,,,,,,,,,,,,,,,,,5<8[8:2],,,,,,,,,,,,
2,5,3,4,1h[8:1],,
7,5,6,1,5,3,8h[8:1],,
2,4,3,8,4,6,1h[8:1],,
8,5,6,1,4,3,
8,8,8,8,1q5[8:1]/7,17,17,1>8[8:10]/7qq2[8:10],,,,,,,,,,,,,,,,,,,,,,,,,,,,,
{4},,E
