&title=夢を叶える場所
&artist=Junk
&first=0
&des=Kondou
&lv_5=13+
&inote_5=(123)
{8}
,,,,,,2-5[8:4],,
4h[8:6],,,,,,5-8[8:4]*-8[8:4],,
7h[8:6],,,,,,8-3[8:4]b,,
4,,5,,6-1[8:4],,4,,
5h[8:4],,,,8,7,6,5,
4bpp1[8:6]/3b,,,,2h[8:2],,,,
3pp6[8:6],,,,8h[8:2],,,,
7h[8:2],,5h[8:2],,4h[8:2],,2h[8:2],,
1s5[8:6],,,,,,,,
{32}E3,E2,E1,E8,,,,,{8},,,,,,
(133){8}
3hx[8:1]/4xh[8:1],,2,2,5h[8:1]/3h[8:1],,6,6,
5h[8:1]/4h[8:1],,3,3,4-1[8:1]/6h[8:1],,3x,,
6hx[8:1]/5xh[8:1],,7,7,4h[8:1]/6h[8:1],,3,3,
4h[8:1]/5h[8:1],,6,6,5-8[8:1]/3h[8:1],,6x,,
4x/2x,3,54,{16}6,5,7h[8:1],,8h[8:1],,1hx[8:1],,,,
8x/2x,,7,,65,,4,5,3h[8:1],,2h[8:1],,1hx[8:1],,,,
7x/8x,,78,,2x/1x,,21,,3x/4x,,34,,6x/5x,,65,,
3,4,3,,2x/5x,,6,5,,8x/4x,,6,{24}1,2,3,{16}4p2[8:5],8p6[16:9],,,,,,,,,,,,,,,,,
{8}1b^4[8:1]/5b^7[8:1],,1/5p1[8:1],,8,,62,3,4-1[8:1]/5,,84,7,6-3[8:1]*-4[8:1],,6,,
1^6[8:1],,4^1[8:1]/1,,5pp3[8:2]/4,,3,2,
1-6[8:1]*-4[8:1],,,,73,3,54,5,
6-1[8:1]/2v5[8:1],,62,,8x-5[8:1]/4^1[8:1],,8/4^7[8:1],,
8-3[8:1],,5-1[8:1],,2-6[8:1],,8<2[8:2]/2,,
18,,1>7[8:2],,81,,8V64[8:2]*V24[8:2],,
8,,,,25,3,84,7,
6-4[8:1]/1,,6/8-6[8:1],,2-8[8:1]/8,,4-2[8:1]/2,,
5pp3[8:2]/4,,1,,2^5[8:1],,12,,
7^5[8:1]/8,,7/8p4[8:1],,8/1q5[8:1],,1/2^4[8:1],,
7V51[8:2]/2,,8,,2V84[8:2],,24,5,
{16}6,,75,,3,,24,,8,,75,,1,,24,,
5-2[8:1]/4,,6,,7-4[8:1]/5,,8,,1-6[8:1]/7,,2,,3-8[8:1]/1,,3,,
43,,4,,62,,62,,3,4,1,8,5,6,2,7,
1s5[8:4]/8z4[8:4],,,,,,,,,,,,,,,,
{1}E7/Cf/E3,,
{8}3h[8:8],,,,,,,,5h[8:8],,,,,,,,
4-6[8:4],,,,,,,,5qq3[8:4],,,,,,,,
4p6[8:4],,,,,,,,5<4[8:4],,,,,,{16}1x,1x,1x,1x,
{8}2x-5[8:1]/8x,,25,4x-8[8:1],,8,2pp1[8:2],,
12,{16},8,8,,{8}7hx[8:2]/1hx[8:2],,,53,,
7x-4[8:1]/1x,,74,5x-1[8:1],,1,7qq8[8:2],,
87,{16},1,1,,{8}2hx[8:2]/8hx[8:2],,,34,54,
{16}6,6,4,5,3,4,3,4,2,5,2,5,1,6,1,6,
3,3,5,4,6,5,6,5,7,4,8,3,1,1,2,2,
{24}7,6,5,{16}1,1,4,2,5,5,{24}8,1,2,{16}7,7,4-8[8:6],6,2,8,C,
,,,,,,,,,,,1bw5[8:1],,,,
B1f,,,,3x^8[8:1],4x,,4,3-7[8:1],,5,,3/5-8[8:1],,,,
5/1^6[8:1],,,2,1x-5[8:1],,4,,1^4[8:1],,2,,17,,,,
7-3[8:1]/8,,,1,7,,2,,4x^1[8:1],,5,,46,,7,,
8,,2,2-5[8:1],,5V38[16:3],,6h[16:3],,,,,5xw1[8:1],,,,
5b,,,,6x^1[8:1],5x,,5,6-2[8:1],,4,,6/4-1[8:1],,,,
4/8^3[8:1],,,7,8x-4[8:1],,5,,8^5[8:1],,7,,82,,,,
2-6[8:1]/1,,,8,2,,7,,5x^8[8:1],,4,,53,,2,,
3,4,2,2,6,5,7,7,{32}1x,2x,3x,4x,5x,6x,7x,8x,1x/6x,2,3,4,5,6,7,8,
{16}1b^4[8:1]/5b,,,8,1q5[8:1],7,,7,1,,8,,84,7,6,5,
8/4-7[8:1],,3,3,4-8[8:1],,2,,4,,1,,{24}7/3,6,5,4,,,
{16}1-6[8:1],,,8,1^4[8:1],7x,,7x,1,,5,,6,5,7,4,
8-3[8:1],,3>6[8:2],3,,4,,5h[16:3],,,,,{24}4,5,3,4,,,
{16}8b^5[8:1]/2b,,,1,8p4[8:1],2,,2,8,,1,,15,2,3,4,
1/5-2[8:1],,8,8,5-1[8:1],7,,7,5,,6,,{24}2/6,37,84,5/1,,,
4,3,2,{16}8,8,1,5,4,7,2,2,4,4,{32}8,7,6,5,4,3,2,1,
{16}8h[8:6],,6,,5,5,,4h[16:5],,,,,{48},5x/1x,6x/2x,{16}7x/3x,,,
1b^4[8:1]/5b^8[8:1],,,,1p5[8:1]b/5p1[8:1]b,,,,1/5^8[8:1],,,,8,1,2,3,
4-8[8:1],,,,4/2^5[8:1],,,,1/2-6[8:1],,,8,2,,7,,
7pp4[8:2]/8,,,,1,,2,,3-6[8:1],,,,3/7<2[8:2],,,,
71,,,8,8<2[8:2],,1,,2,,,,1b,,8,7,
6/4-8[8:1],,3,,4/5-7[8:1],,6,,4-2[8:1]/5,,3,,4/5-1[8:1],,6,,
75,,6,,24,,3,,8,8,4,4,6,6,7x/8x,,
{32}1,2,3,4,{16}5h[8:1]/6h[8:1],,,1h[8:1]/8h[8:1],,,4h[8:1]/3h[8:1],,,8h[8:1]/1h[8:1],,,2b/7b,,
4,4,5,3,8,8,4,6,{24}2,1,8,{16}5,5,{32}3x,2x,1x,8x,7x,6x,5x,4x,
{16}3hx[16:1]/7,7,,2/6h[16:1],2,,5/1h[16:1],5,,4/8,8h[8:1]/4h[8:1],,{48},1x/5x,2x/6x,{16}3x/7x,,,
{24}1b/5b,,,2,3,4,5h[8:1]/1b,,,1,2,3,4h[8:1]/8b,,,8,1,2,3h[8:1]/7b^4[8:1],,,,,,
{16}7b/1-5[8:1],,2,2,1^4[8:1],,3,,8-5[8:1]/1,,7,7,8qq1[8:2],,,,
8/2,,,3,3pp7[8:2],,4,,3b/5b,,,,8,8,5,6,
1b^3[12:1],,3/5,,7b/1b,,6,6,,2x-5[8:1],,3,,2,8,,
8b^6[12:1]b,,6-1[8:1]/4,,2b/8b,,3,3,,7x-4[8:1]b,,6,,7,1,,
1b^3[12:1]b,,3-8[8:1]b/5,,7b/1b,,6-1[8:1],6,,2x-5[8:1]b,,3,3,,8,,
8b^6[12:1]b,,6-1[8:1]b/4b,,2b/8b,,3-8[8:1]b,3,,7x-4[8:1]b/3b,,6,6,,1bh[16:17],,
,,,,,,,,,,,,,,,{24}8,
72,63,{1}4>5[8:46]/5<4[8:46]b,,,,,,,
