&title=Heart Of Witch
&artist=M2U
&first=-0.81
&des=hazz
&lv_5=14
&inote_5=(170)
{8}
,,,,,,{16}1,2,3,4,
{8}
7h[2:1]/5,,,,8-6[8:1],,1,2,
3-8[8:1],5,6,7h[8:1],{16}1,2,3,4,8,7,6,5,
4/2-5[8:1],,,,,,6,7,8-4[8:1],,,,1h[4:1],,,,
5,6,7,8,2,3,4,5,1-5[8:1],2,3,4,5,,,,
7-1[8:1],,6,5,7,,2-4[8:1],,3,1,2,,5-2[8:1],,4,6,
5,,7-4[8:1],,8,1,7,,1-6[8:1]*-4[8:1],,,,1,,,,
3-5[8:1],,2,1,3,,6-8[8:1],,7,5,6,,1-5[8:1],,8,2,
1,,3-8[8:1],,2,4,3,,7-5[8:1]*-3[8:1],,,,7,,,,
{8}
1/4,2,2,14,2-6[8:1],2,7,,
8/5,7,7,85,7-3[8:1],7,2,,
1/4,2,2,14,2-6[8:1],2,7,,
5b/7b-4[8:1],,8b>3[8:1],,5b-1[8:1],,2b-5[8:1],,
2,8-5[8:1],8,4,3-8[8:1],4,5,,
7,1-4[8:1],1,5,6-1[8:1],5,4h[4:1],,
{16}2,3,4,5,6,7,8,,{8}3-8[8:1],4,5,,7b-4[8:1],,1b-5[8:1],,{16}5b,6,7,8,4b,3,2,1,
7h[4:1],,,,
8,7,8,7,5,6,5,6,2,1,2,1,3,4,3,4,8,7,8,7,1,2,3,4,8,7,6,5,
4b/2h[4:1],,,,
1,2,1,2,4,3,4,3,7,8,7,8,6,5,6,5,1,2,1,2,8,7,6,5,1,2,3,4,
5b/7h[16:4],,,,
8,7,8,7,5,6,5,6,2,1,2,1,3,4,3,4,8,7,8,7,1,2,3,4,8,7,6,5,
4b/2h[16:4],,,,
4,5,6,7,1,2,3,4,8,7,6,5,3,2,1,8,2,1,8,7,5,4,3,2,1,,7,
{16}8,6,,7pp5[4:3],{2},{8},,
{16},3,,3qq4[4:3],{2},{8},,
{16},5,,5pp5[4:3],{2},{8},,
{16},2,,2qq4[4:3],{2},{8},,
{16},6,,6pp5[4:3],,4,,4,,3,,3,,2,,2,
{16},1,,1pp1[4:3],,4,,4,,5,,5,,6,,6,
{16},7,,7qq4[4:3],,8,,8,,1,,1,,2,,2,
{16},3,,3pp1[4:3],,5,,5,,6,,6,,7,,7,,
{16}8,,8h[2:1],,,,2,3,4,5,6,7,8,1,2,
3,4h[2:1]/8,,,,2,1,8,7,6,5,4,3,2,1,8,
,6,5,6,5,7,8,7,8,4,3,4,3,1,2,1,2,
6,5,6,4,5,4,6,5,7,4,5,3,7,8,6,3,
4,2,4-8[8:1],2,4,,1,,2-4[8:1],,2,,1,,,
,5,7,5-1[8:1],7,5,,8,,7-5[8:1],,7,,8,,,
,4,2,4-8[8:1],2,4,,1,,2-4[8:1],,2,,1,,,,
5-2[8:1]/8,,,,6,,,,4-7[8:1]/1,,,,3,,,
,48,1,2-6[8:1],3,4,,2,,8-4[8:1],,8,,2,,
,,15,8,7-3[8:1],6,5,,7,,1-5[8:1],,1,,7,,
,,84,1,2-6[8:1],3,4,,2,,8-4[8:1],,8,,2,,
,,1b-6[8:1],,,,5b-2[8:1],,,,1bv6[8:1]*v4[8:1],,,,1b,,
,,3/7h[4:1],,,,4<7[8:1],3,2,1,8-5[8:1],,,,1>5[6:1],,
,,6h[4:1],,,,7-4[8:1],8,1,2,3<6[8:1],,,,2p6[8:1],,
,,7h[4:1],,,,5v2[8:1],4,3,2,1q5[8:1],,,,1,,
,,6/4h[4:1],,,,5>2[8:1],6,7,8,1-4[8:1],,,,8<4[6:1],,
,,3h[4:1],,,,2-5[8:1],1,8,7,6>3[8:1],,,,7q3[8:1],,
,,2h[4:1],,,,4v7[8:1],5,6,7,8p4[8:1],,,,8,,
2,,3,,5-1[8:1],4,6h[8:1],,5,,8-4[8:1],,7,1,8,,
3,,12,,38,,74,,65,,78,,16,,25,,
3,4,3bv8[8:1],,,,7-5[8:1],,5-1[8:1],,1-6[8:1],,2,,4-2[8:1],,
2-5[8:1],,5,,6,,7-4[8:1],,4-8[8:1],,7,,3,,1,,
72,63,4b/5b-2[8:1],,,,1-5[8:1],,1,,8-5[8:1],,7,,4,,
4-8[8:1],,3,,2-5[8:1],,1,,7-1[8:1],,6,,4,,2,,
82,37,6b
/4h[4:1],,,,8h[8:1],,3h[8:1],,7h[8:1],,2h[8:1],,6h[8:1],,
1,5,2,6,3,7,4,8,5,1,48,37,26,15,
8,7,6,5,4/1h[8:7],,,,,,,,8h[8:3],,,,,,,72,3bqq5[1:3]/6bpp4[1:3],,,,,,
{1},,,{2},,
E
