&title=パジャミィ
&artist=いよわ feat. 初音ミク
&first=0.083
&des=Kurage
&lv_5=13+
&inote_5=(197)
{1},
{4},,{16}1,8,1,8,1,8,1,8,
{8}
2bh[8:1],1-3[8:1],8h[8:1],1x,6,2,8h[8:1],1-7[8:1],
2h[8:1],1x,4,6,2-4[8:1],4-8[8:1],2,6,
7x-2[8:1],,3x-6[8:1],,8-5[8:1],8,4>5[4:2],4xh[8:5],
,,,,,,63,,
7bh[8:1],8-6[8:1],1h[8:1],8x,3,7,1h[8:1],8-2[8:1],
7h[8:1],8x,5,3,7-5[8:1],5-1[8:1],7,3,
2x-7[8:1],,6x-3[8:1],,1-4[8:1],1,5<4[16:9]*p4[16:9],5x,
,,,,,,E5,,
3bh[8:1],4-2[8:1],5h[8:1],4x,7,3,5h[8:1],4-6[8:1],
3h[8:1],4x,3,7,2-4[8:1],1-5[8:1],2,1,
3x<6[8:1],,7x>2[8:1],,4-1[8:1],4,8<1[4:2],8xh[8:5],
,,,,,,27,,
6bh[8:1],5-7[8:1],4h[8:1],5x,2,6,4h[8:1],5-3[8:1],
6h[8:1],5x,6,2,7-5[8:1],8-4[8:1],7,8,
6x>3[8:1],,2x<7[8:1],,5-8[8:1],5,1>8[4:2],1xh[8:5],
,,,,,,C,,
{8}
3<5[8:1],,,,3<5[8:1],,,,7,7,5,6,4,5,3,4,
1,1,8,2,6,6pp5[4:2],,5x,,3x,3xh[8:4],,,,E5,,
6>4[8:1],4,3,,6>4[8:1],4,3,,2,2,4,3,6,4,5,2,
8,8,1,7,3,3v4[4:1],,4x,,,7,,36,,E5,,
3<5[8:1]*<5[8:1],5,6,,3<5[8:1]*<5[8:1],5,6,,7,7,3,5h[4:1],,2,6,1,
8,8,3,7,1-4[8:1],,5,5,6<3[8:3],,4x,4xh[8:3],,,5x,,
3q5[4:6]/6p4[4:6],,,,,,,,,,,,,,,,
3h[4:1],4h[4:1],,,,4,5h[4:1],4h[4:1],,,,4,3-1[8:1]/6-8[8:1],,3-5b[8:1]/6-4b[8:1],,
{8}
,,1b/8b-4[8:1],7,8-2[8:1]*-6[8:1]/6,,8,,
53,4,{16}6,5,7,,{8}8-4[8:1]/4,84,3>8[8:1],3,
5,,7-5[7:1]/1-5[8:1],8,1/7-3[8:1],,4xqq5[16:7],,
5,,6,6,7-3[8:1],,3-5[8:1],2,
1b-4[8:1],,1-6[8:1],8,6x-4[8:1],,3-7[8:1],2,
1-4[8:1],,1-6[8:1],8,6x-4[8:1],,1w5[8:1],,
1b`Cf,,{12}3xb/7xb,3xb/7xb,3xb/7xb,{8}3xb/7xb-3b[8:1],,1,1,
{16}2b/8b,,3,4,3b,,6,5,{8}7b-3[8:1],1-5[8:1],7b,1,
{16}8bh[16:3],,,4,{8}6>4[8:1],2,1-4[8:1]/6-1[8:1],,1x,,
37,6,{16}4,5,3,,{8}2-6[8:1]/6,26,5-8[8:1],5,
1,,3>8[8:1]/7-4[8:1],2,3-7b[8:1]/7,,,,
{12}1xh[12:1],5h[12:1],3h[12:1],1xh[12:1],5h[12:1],7h[12:1],{8}1-5[8:1],,,,
6-8b[8:1],3x-5[8:1],6,3x-1[8:1],7-3b[8:1],3x-5[8:1],7,8x,
1-3b[8:1],6x-8[8:1],1,6x-4[8:1],2-6b[8:1],6x,2,,
8,57,{16}3,4,{8}3,26,8,{16}7,5,{8}6,
3-5[8:1]/7,3,1-7[8:1],1,2-6[8:1],2,Cf,,
(98.5)
{4}8x-5b[197#4:2]/1x-4b[197#4:2],,3x<6[16:3]/6x,{12}E5,,7,
{12}
8-5[48:5],,,4-1[48:5],,3,7p2[48:8],,,1,1,1,
8<5[48:5]/1>4[48:5],,2x/7x,,,3x/6x,3h[12:2]/6h[12:2],,,{24}3x,4,3x,2,3x,,
{12}1,81,,{24}7x,8,7x,6,7x,,{12}5,45,,{24}3,4,3,,6,5,
{12}6>3[48:5],,,{24}3x,2x,1x,8x,7x,6x,{24}5xh[4:1],,,{48},,,4x,,,{12}4x,,,
3-6[48:5]/6,4,4,7>2[48:5],8,8,4qq5[4:1],,3,5,7,8,
6pp5[4:1]*pp5[4:1],6,4,2>5[8:1],,1x,,,,73,6,{24}4,5,
{12}4-1[48:5],3,3,5-8[48:5],6,6,2qq6[12:4],,1,7xh[12:6],,,
{12},,5x,5x<4[12:4],6,4,3,,,E5,,,
{4}7z3[8:5],,,,
(197)
{16}
4b/5b,,,,3,4,3x,,6,5,6x,,2,4,3x,,7,5,6x,,1,4,3x,,8,5,6x,,45,,4x/5x,,
3b/6b,,,,2,1,2x,,7,8,7x,,2,1,3x,,7,8,6x,,1,8,2x,7,4-1[4:1],5-8[16:3],4x,5,,,,,
,,,,,,,,{32}E1,E2,E3,E4,E5,E6,E7,E8,{4}E1,
{8}
2b-8[8:1]/6b-4[8:1],,2b-5[8:1]/6b-2[8:1],,2b/6b,,8bw4[8:1]/4b,,
8b,,6,2,1-5[8:1]/5,15,6<1[8:1],6,
4,,2>5[8:1]/8<5[8:1],1,2-6[8:1]/8,,5xpp4[16:7],,
4,,3,3,2>5[8:1],,6p2[32:5],7,
8b-5[8:1],,8-3[8:1],1,3<5[8:1],,6p2[32:5],7,
8-5[8:1],,8-3[8:1],1,3<5[8:1],,8w4[8:1],,
8b`Cf,,{12}6xb/2xb,6xb/2xb,6xb/2xb,{8}6xb/2xb-6b[8:1],,8,8,
{16}7b/1b,,6,5,6b,,3,4,{8}2b-6[8:1],8-4[8:1],2b,8,
{16}1bh[16:3],,,5,{8}3-5[8:1],7,8<5[8:1]/3>8[8:1],,8x,,
62,3,{16}5,4,6,,{8}7-3[8:1]/3,73,4-1[8:1],4,
8,,6-2[8:1]/2-5[8:1],7,6>3b[8:1]/2<7b[8:1],,,,
{12}8xh[12:1],4h[12:1],6h[12:1],8xh[12:1],4h[12:1],2h[12:1],{8}8-4[8:1],,8,,
3-1b[8:1],6x-4[8:1],3,6x-8[8:1],2-6b[8:1],6x-4[8:1],2,1x,
8-5b[8:1],3x-6[8:1],8,3x-8[8:1],7-3b[8:1],3x,7,1,
42,42,{16}6,5,{8}6,73,1,{16}2,4,{8}3,
6-4b[8:1]/2,6,8-2b[8:1],8,7-3b[8:1],7,Cf,,
{4}1xq4[4:6],,,,5x-8[4:2]*-8[4:2],,,,
{8}
8xb-5b[8:1]/4xb-1b[8:1],,4b>5[4:2]/8b`Cf,,,,,,
4x,4,36,5,2-4[8:1],4-8[8:1],2,6,
7-2[8:1],7,3-6[8:1],3,8-5[8:1],8,4>5[4:2],4h[8:3],
,,,,3,,15,,
7-5[8:1],4-8[8:1],7,4,6,2,4-8[8:1],1-3[8:1],
4,1,6,2,7-5[8:1],5-1[8:1],7,3,
2-7[8:1],2,6-3[8:1],6,1-4[8:1],1,5pp4[16:9]*<4b[16:9],5,
,,,,,,E5,,
7b-5[8:1],3-8[8:1],7,3,6,2,4-7[8:1],1-5[8:1],
4,1,6,2,7-5[8:1],5-1[8:1],7,3,
2<7[8:1],2,6>3[8:1],6,1-4[8:1],1,5<4[4:2],5h[8:3],
,,,,6,,84,,
2b-4[8:1],6<1[8:1],2-6[8:1],6,2b,8,7-5[8:1],3>8[8:1],
7b-3[8:1],3,7,1,2b-5[8:1],6-2[8:1],2b,6,
{4}4xpp4[4:3]*qq4[4:3],,,,{16},,,D5,E5,
