&title=Crystal Gravity
&artist=Tanchiky vs. siromaru
&first=0.03
&des=Aleurites Moluccanus
&lv_5=14
&inote_5=(178)
{1},
{4}4>6[4:5]/5h[2:1],,,,5h[2:1],,,,5/3h[2:1],,4h[2:1],,5h[2:1],,6h[2:1],,
{4}2V48[2:1],,6,,5V73[2:1],,2,,1V73[2:1],,5,,6V48[2:1],,2,,
{4}1>4[2:1],5,6,7,8<5[2:1],4,3,2,1-5>2[2:1],5,6,7,8-4<7[2:1],4,3,2,
{8}1,1h[4:1],6,5,4/2-6[8:1],,,,7,7h[4:1],5,4,3/6v4[8:1],,,,
{16}3,5,4,,6,4,5,,3,4,2,,6,5,7,,3,5,3,5,4,6,4,6,5-1[8:1],7,5,7,5,,,,
{16}8b/2b,,,,1,,2/8,,7-4b[8:1]/3v8[8:1],,,,3/7,,,,
{8}1/5,2,3/7,3,5/3,5,5b-8b[8:1]/1b-4[8:1],,5b/1b,,7/3-7[8:1],6,5<8[8:1]*-3[8:1]/3,,5,,
{16}2,1,2,1,3,4,3,4,3-6[8:1],,,,3b/8>3[8:1]*<5[8:1],,,,8b,,,,4,,5/3,,
{16}2bv5b[8:1],,6b-1b[8:1],,2b,,6b,,4b,,,8,8,,3h[8:1],,Ch[4:1],,,,,,,,
{16}3b,,7,5,6,3,4,,5b/2b,,3,7,4,6,3,,
2h[8:1]/5h[8:1],,,,3h[8:1]/5h[8:1],,,,4,6,4,6,5-1[8:1],7,5,7,
{16}5b,,,,2/8,,3/7,,4-1[8:1]/6-3[8:1],,,,4/6,,,,2,,3/4,,5v8[8:1]*v2[8:1],,64,,5,,,,1bw5[8:1],,,,1b,,,,3/7,,2,,1/5,,6,,7/3,,8,,
{32}2x,3,4h[32:4],,,,8x,7,6h[16:2],,,,1x,2,3h[16:2],,,,7x,6,5h[16:2],,,,1b>4[8:1]*<6[8:1],,,,,,,,
{16}1b,,,,2/6,,3,5,4,,6,5,6,,,,1b/8b,,,,7/3,,6,4,5,,3,4,3,,,,
7b/5b,,6,,3,4,3,,2b/8b,,1,,7,8,7,,
{8}12,3,87,6,18,45,6/3,,
{8}8/2h[8:1],8,7/3,6/4,5h[8:1]/3,3,2/4,5/1,8/6,7,1/3,2,7/1,8,
{16}2,1,2,1,
{8}3,3,2/4,3,15,3,1/5,
{16}7,8,6,,6,,5/7,,4/8,,31,,28,,1,7,1,7,
{8}2-6[8:1],2,8-4[8:1],8,5-1[8:1],5,7p3[8:1],7,2>5[8:1],2,8-4[8:1],8,1-5[8:1],1,7,7,
{16}4,,3/5,,2/6,,7,8,6,,3,4,2,,1/8,,
2b-5[8:1]/7b-4[8:1],,,,7b/2b-8[8:1],,,,2bz6[4:1]/7bs3[4:1],,,,,,,,
{8},,
{8}1/5,2,3/6,3,3/5,5,5/1,2,3/7,6,2/5,3,
{16}5,4,5,4,
{8}6,6,7/5,6,84,6,8/4,
{16}2,1,3,,3,,4/2,,5/1,,68,,71,,2,8,2,8,
{16}2xh[8:1],,7,7,,1,8,1,8-5[8:1]*-3[8:1],,7x/1x,,8x,,,,
{16}7xh[8:1],,2,2,,8,1,8,1-7[8:1]*-3[8:1],,2x/8x,,1x,,,,
{16}6h[8:1],,5,6,,4,,3,3h[8:1],,4,3,,5,,
{16}6,{1}Ch[16:16],
{1}8>8[4:14],,,,
{1}1>1[4:14],B7/E7/B6,B2/E3/B3,C,
{4}3-1[4:1],4,5-3[4:1],,7-5[4:1],8,1-7[4:1],,
3-8-5[2:1],4,5,,3V17-5[2:1],4,5,,
2-6[4:1],6v4[4:1],5,,7-3[4:1],3v5[4:1],4,,
3-7[4:1],7V14[2:1],6,,6-2[4:1],2V85[2:1],3,,
{4}4<7[2:1],4,4,4,4/8,8/3,8/2,8V63[4:3]/1,1,1,1,1,
{8}1h[8:1],4,1h[8:1],5,1h[8:1],6,1h[8:1],7,
{8}8-4[8:1],8,3,2,1-5[8:1],1,5,6,7,7,5,5,3,3,1,1,
{8}1/8,1/8,1/2,1/2,2/3,3/4,4/5,5/6,
{16}7,8,7,8,7,8,7,8,7b,,,,
{16}1<6[8:1],2,3,4,5-1[8:1]/1,,,,5,,,,4,5,6,7,8-4-2[4:1]/2,,1,,
8/7,,6,,5<8[8:1],,,,1/5,2,3,4,1,2,3,4,
1x-5[8:1],,5x,,1x,,6,6,4x-8[8:1],,5x,,4x/3x,,2,,
2-4[8:1],,1,,2/8,,7,,6-8[8:1]*-2[8:1],,5/7,,6,,,,
{16}1-5[8:1],,8,,1/7,,6h[8:1],,4-7b[8:1],3,2,1,8/4,,,,
8bx/2bx,,,1bx/7b,,,5bx/6b,,{24}3,4,3,4,,,
{16}52,,6,,
7/8,,
{24}2,1,2,1,,,
{16}8,,17,,
{24}6,5,6,5,,,
{16}4,,
3b-6b[8:1]/7b-2[8:1],,,,3b/7b,,,,1b-6b[8:1]/5b-2[8:1],,,,
1b/5b,,,,
3/7,,6,4,5,,3h[8:1],,4,5,6,7,1,2,3,4,
5/7,,6,4,5,,3h[8:1],,5,6,7,8,2,3,4,5,6-2b[8:1],,,,
Cf/7bx/6bx,,,,8,8,1,,7,,1,,
{32}7b,6,5,4,,,1b,2,3,4,,,8b,7,6,5,,,2b,3,4,5,,,8b,7,6,5,,,,,
{16}2,4,3,5,4,5,3,3,4b,5,6,7,1b,2,3,4,
{16}7,5,6,4,5,4,6,6,5b,4,3,2,8b,7,6,5,
{16}1,,2,4,3,7,5,6,3,4,2,6,5,7,1,8,
{32}2b,3,4,5,,,8b,7,6,5,,,1b,2,3,4,,,7b,6,5,4,,,
{24}2,6,2,6,2V48-3[24:44],6V48-5[24:43],
