&title=ファビュラス
&artist=豚乙女
&first=0
&des=NaOH
&clock_count=4
&lv_5=13
&inote_5=(158){4},,,,,,,,
{8}3h[4:1]/4h[4:1],,,5h[4:1]/6h[4:1],,,
7h[4:1]/8h[4:1],,,1h[4:1]/2h[4:1],,,3h[8:1]/8h[8:1],,4h[8:1]/7h[8:1],,
{16}6x,5,6,5,6,,3x,4,3,4,3,,7x,8,7,8,7,,2x,1,2,1,2,,7x,5,6,,2x,4,3,,
1bx/5bx,,3,7,3,,26,,1-5b[8:1],8,1,,Cf,,,,
2x/7x,,3,4,3,,25,,1-4[8:1]/6,,16,,,,7,,8-6[12:1],,8,,2-4[12:1],,2,,1-5[8:1],,1-3[8:1],,1x,,,,
6-4[8:1],,4,,6,,2,,7-5[8:1],,4,,7,,3,,8-6[8:1],,5,,8,,3,,1V35b[8:1],1,,,1b/7b,,,,
7x/2x,,6,5,6,,74,,8-5[8:1]/3,,83,,,,2,,1-3[12:1],,1,,7-5[12:1],,7,,8-4[8:1],,8-6[8:1],,8x,,,,
3-5[8:1],,5,,3,,7,,2-4[8:1],,5,,2,,6,,1-3[8:1],,4,,1,,6,,8V64b[8:1],8,,,8b/2b,,,,
2bx/B6,,,8bx/B3,,,2bx/B5,,7bx/B3,,,1bx/B6,,,7bx/B4,,
1bx/B5,,,7bx/B3,,,1b,,1bs5[8:1]/8b,,,,,,,,
6h[16:3],,,4h[16:3],,,8<4[4:1],,,,3,,2,,1,,
8h[16:3],,,6h[16:3],,,5V38[4:1],,,,7,,6,,5,,
4-7[8:1],,25,,4,,2,2h[16:5],,,8,,7,,6,,
1>4[8:1]/5,,2,,18,,7,7h[16:5],,,3,,2,,1,,
7h[16:3]/8,,,5h[16:3],,,3V58[4:1],,,,1,,2,,3,,
4h[16:3],,,2h[16:3],,,8V25[4:1],,,,6,,7,,8,,
1-6[8:1],,38,,1,,3,3h[16:5],,,5,,6,,7,,
8<5[8:1]/4,,7,,81,,2,2h[16:5],,,7,,6-1b[8:1],,5,,,,
2,,3,,4,,5h[4:1],,3,,4,,5,,6h[4:1],,4,,5,,6,,7-5[12:1],,,,47,,,,
4h[4:1],,6,,5,,4,,3h[4:1],,5,,4,,3,,2h[4:1],,4,,3,,2,,1>4b[8:1],1,,,6,6,,,
75,,6,,5,,4,,35,,4,,3,,2,,18,,7,,6,,5,,3-8[8:1]/4-7[8:1],,,,34,,,,
2x/5x,,3,4,,4,3,,1x/5x,,7,5,,5,7,,1x/8x,,2,4,,4,2,,
1bxp8b[4:1]/Cf,,,,,,,,
7x<4[8:1],,,,3,,2,,1s5[8:1]*s5[8:1],,,18,,,6xh[4:1],,,,3,3,4,,25,,1>5b[8:1]*<5b[8:1],,,1,,,,,
3h[4:1],,4,,5h[4:1],,4,,2h[4:1],,4,,6h[4:1],,4,,2,,3,4,3,,6,5,7,,48,,2-5[8:1]/6-1[8:1],,,,
2b/6b,,,,37,,26,,1>4[8:1]/5,,,15,,,7h[4:1],,,,2,2,6,,35,,4-1[8:1]*-7[8:1],,,4,,,,,
2>5[8:1]/6,,,,2,,6,,7v2[8:1],,,2<4z8b[16:13],,,{24}E4,B4,B5,{4}E6f,,,,
{16}
3x/4x,,2,1,2,,38,,4>1[8:1]/7,,47,,,,6,,5-7[12:1],,5,,3-1[12:1],,3,,4-7[8:1],,4-1[8:1],,4x,,,,
7x<4[8:1],,3,,7,,2,,8<5[8:1],,4,,8,,3,,1<6[8:1],,5,,1,,4,,2-8^6b[8:1],2,,,2b/4b,,,,
4x/5x,,7,8,7,,61,,5<8[8:1]/2,,52,,,,3,,4-2[12:1],,4,,6-8[12:1],,6,,5v2[8:1],,5v8[8:1],,5x,,,,
2x-4^5[8:1],,6,,2,,7,,1-3^4[8:1],,5,,1,,6,,8-2^3[8:1],,4,,8,,5,,7-1^3b[8:1],7,,,7b/5b,,,,
2bx/B6,,,8bx/B3,,,2bx/B5,,7bx/B3,,,1bx/B6,,,7bx/B4,,
1bx/B5,,,7bx/B3,,,1b,,2b/7bh[4:1],,E1,E8,E7,E6,E5,,
7xV51[4:1],,,3,3,,1<3[4:1],,,,3,,2,,1,,
1V37[4:1],,,6,6,,7>5[4:1],,,,5,,6,,7,,
8x<5[8:1],,1,,2-6[8:1]/8,,3,3h[16:3],,,,,3,,2,,
1x>4[8:1],,8,,7-3[8:1]/1,,6,6h[16:3],,,,,6,,7,,
8V62[4:1],,,3,3,,2<4[4:1],,,,4,,3,,2,,
2V84[4:1],,,5,5,,4>6[4:1],,,,6,,5,,4,,
4x<7[8:1],,2,,1-5[8:1]/4,,2,2h[16:3],,,,,3,,4,,
5x>2[8:1],,7,,8-4[8:1]/5,,7,7h[16:3],,,,,6-3b[8:1],,5,,,,
2,,1,,8,,7h[4:1],,1,,8,,7,,6h[4:1],,8,,1,,2,,2-5[8:1]/6,,,,4-7[8:1],,,,
,,8,,1,,2,,3h[4:1],,1,,8,,7,,6h[4:1],,8,,1,,2,,3-8[8:1],3,,,7-4b[8:1],7,,,,,
1,,28,,3,,24,,4,,35,,5,,46,,8,,35,,1,,2v5[8:1]/8v5[8:1],,,,28,,,,
3x/4x,,2,1,,1,2,,3x/8x,,6,5,,5,6,,3x/7x,,4,5,,5,4,,1b>4[8:1]/7b,,{24}5,6,7,8b,,,,,,
{16}
7xp3[8:1],,2,2,7,,1,,8>6[4:1],,,78,,,8xh[4:1],,,,5,5,7<4[8:1],,8,,3q5b[4:1]/7,,,3,,,,,
6<1[8:1],,7,,2>5[8:1]/6,,3,,7V15[4:1]/2,,7,,4,,3,,2,,1,8,1,,6,5,6,,28,,6pp5[4:1]/4>1[8:1],,,,
4b/6b,,,,2,,3,,4>1[8:1]/5,,,7p3[8:1]/4,,,7,,,,1,1,5,,37,,2-4[12:1]/6-8[12:1],,,26,,,,,
15,,26,,37,,48,,1h[8:1]/5h[8:1],,,3h[8:1]/7h[8:1],,,
{48}3bxqq8b[8:5]/7bxqq4b[8:5],D3/D7,A6/A2,D2/D6,A5/A1,D1/D5,{4}A8f/A4,,,,
{16}
2x/5x,,3,4,3,,25,,1-5[8:1]/6,,16,,,,7,,8-6[8:1],,8,,2-4[8:1],,2,,1v6[8:1],,1v4[8:1],,1x,,,,
7<4[8:1],,8,,1,,2,,3>8[8:1],,4,,5,,6,,7V15[4:1],,1,,2,,3,,3>8b[8:1],3,,,3b/4b,,,,
7x/4x,,6,5,6,,74,,8-4[8:1]/3,,83,,,,2,,1-3[8:1],,1,,7-5[8:1],,7,,8v3[8:1],,8v5[8:1],,8x,,,,
2>5[8:1],,1,,8,,7,,6<1[8:1],,5,,4,,3,,2V84[4:1],,8,,7,,6,,6<1b[8:1],6,,,6b/5b,,,,
5h[8:1]/1bx,,,5h[8:1]/3b,,,4/5b,,
6h[8:1]/1b,,,6h[8:1]/3b,,,6/5b,,
7h[8:1]/1b,,,7h[8:1]/3b,,,7/5b,,
8h[8:1]/1b,,,8h[8:1]/3b,,,8/5b,,
7b/8b,,,,
