&title=With a Billion Worldful of <3
&artist=Mili
&first=0.05
&des=With a Million Worldful of <3
&lv_5=13+
&inote_5=(150)
{1},,
{16}3,,,3,,,4,,4,5,,5,4,,4,,3,4,,4,3,,3,,6,5,,5,6,,6,,
{16}4,,,4,,,5,,5,4,,4,5,,5,,6,5,,5,6,,4,,4,5,4,5,4-8[8:1],5,4,5,
{16}4,,,7,,,7,,6,5,,3,4,,2,,2,1,,7,8,,6,,3,4,,2,1,,7,,
{16}4,,,4,,,6,,6,5,,7,8,,3,,2,1,,3,4,,2,,6,5,,2,1>4[12:1],,7,,
{16}1,,,5,,,5,,6h[8:3]/4,,,3,,,3,,2h[8:3]/4,,,5,,,5,,4h[8:3]/6,,,7,,,7,,
{16}8h[8:3]/6,,,5,,,5,,46,,3,4,,5,4,,3h[8:3]/6,,,5,,,5,,6h[8:3]/4,,,2,,,2,,
{16}1h[8:3]/3,,,4,,,4,,35,,4,6,4,6,4,,5h[8:3]/3,,,6,,,6,,7h[8:3]/5,,,8,,,8,,
{16}17,,3,4,,6,5,,28,,6,5,,3,4,,3h[8:3]/5,,,6,,,6,,57,,,37,,,17,,
{8}57,4,6^4[8:1],3,6,2,3,4,
{8}26,5,3^5[8:1],6,3,6,7,8,
{8}5h[4:1],6,6^4[8:1],6,3,3,2,1,
{8}4h[4:1],3,3^5[8:1],3,6,6,7,8,
{8}2-4[8:1],1,2,8,7-5[8:1],8,7,1,
{8}2-5[8:1],1,2,8,7-4[8:1],8,7,1,
{8}2h[8:1],,4h[8:1],,6h[8:1],,4,5,
{8}3-6[2:1]/6^3[2:1],,,,,,,,
{8}4q4[2:1],,,,4<4[4:3],,,,
{24},,,,,,8,7,6,5,,,5h[4:1],,,,,,,,,,,,
{8}5>5[2:1],,,,5p5[2:1],,,,
{8}4,,3V52[4:1],,2V83[4:1],,,,
{8}7w3[4:1],,,,,,,,
{8}3,4,5,6,5,4,3,,
{4}1>7[4:3],,5q3[4:3]*<3[4:3],,
{4},,,,
{4}1v4[8:2]/7v4[8:2],,8-2[8:1],8-6[8:1],
{2}8,{96}2,,,,,,,,,,3,,,,,,,,,4,,,,,,,,7,,,,,,,6,,,,,,,5,,,,,,,
{1}1b-5[8:5],
{1}7-3[8:5],
{4}2-6[8:5],1,8,7,
{1}8-4[8:5],
{1}2-7[8:5]/6-3[8:5],
{1}8-3[8:5]/4-7[8:5],
{2}4h[1:1],5,
{16}5,,,,36,,,,45,45,45,45,,,,,
{16}3h[8:4],,,,,,4,,4w8[8:1],,,4,,,,,56,,1,8,1,,48,,2-5[8:1]/6-1[8:1],,,,26,,,,
{32}4/8<8[4:1],3/7<7[4:1],2/6>6[4:1],1/5>5[4:1],4h[4:1],,,,,,,,,,,,
{8}5b,,,,
{48}18,2,3,,,,,,,7,6,5,,,,,,,2,3,4,,,,8pp3[16:5],7,6,,,,,,,
{16},,,,,
{48}6pp5[16:5],5,4,,,,,,,,,,
{4},
{48}2,3,4,,,,,,,
{16},,,,,
{16}34,,8,1,8,,51,,7-4[8:1]/3-8[8:1],,,,73,,,,
{32}5/1>1[4:1],6/2>2[4:1],7/3<3[4:1],8/4<4[4:1],5h[4:1],,,,,,,,,,,,
{8}4b,,,,
{16}2h[16:3]/3,,,4h[16:3],,,6,,7/8h[16:3],,,2h[16:3],,,4,,
{48}1>8[16:3]/8,,,,,,,,,,,,
{4},
{32}26,35,4w8[12:1],,,,
{16},,,,,
{16}56,,1,8,1,,48,,2-7[8:1]/6-3[8:1],,,,26,,,,
{32}4/8-4[8:1],15,26,37,4>8[8:1]*>7[32:5]*>6[32:6]*>5[32:7]*>4[32:8]/8,,,,,,,,,,,,4b,,,,,,,,,,,,,,,,
{48}81,7,6,,,,,,,2,3,4,,,,,,,7,6,5,,,,1qq6[16:5],2,3,,,,,,,
{16},,,,,
{48}3qq4[16:5],4,5,,,,,,,,,,
{4},
{48}7,6,5,,,,,,,
{16},,,,,
{16}12,,5,4,5,,15,,7-2[8:1]/3-6[8:1],,,,73,,,,
{32}5/1-5[8:1],84,73,62,5<1[8:1]*<2[32:5]*<3[32:6]*<4[32:7]*<5[32:8]/1,,,,,,,,,,,,5b,,,,,,,,,,,,,,,,
{16}6/7h[16:3],,,5h[16:3],,,3,,2/1h[16:3],,,7h[16:3],,,5,,
{48}8<1[16:3]/1,,,,,,,,,,,,
{4},
{32}73,64,5w1[12:1],,,,
{16},,,,,
{16}56,,1,8,1,,48,,2v8[8:1]/6v4[8:1],,,,26,,,,
{8}1b/5b,,37,,5,5-1[8:1],,5,,1,8,7,6-1[8:1]/2-5[8:1],,26,,
{8},4,4,26,,4-8[8:1],,4,,8,1,2,3-8[8:1]/7-4[8:1],,37,,
{8}5,,37,,1,37,,46,,7,7-3[8:1],,7-5[8:1]/1-5[8:1],,71,,
{8},5,5,37,,2-6[8:1],,
{16}2,,7,,8,,1-3[8:1],,8-4[8:1],,7-5[8:1],,8,,7,,,,
{8}2h[4:1],,4h[4:1],,5h[4:1],,7h[4:1],,
{12}2,4,4,3,5,5,4,6,6,5,7,7,
{12}1,3,2,7,5,6,2,4,3,8-4[8:1],6,7,
{8}8v5[8:1]*v3[8:1]/6,,,,4h[1:2],,,
