&title=Lunar Eclipse
&artist=X
&first=0.355
&des=
&des_5=希腊奶
&lv_5=14
&inote_5=(152){4}E1,{8},C,,,E6,E4,
,B8,,B3,{4}E6,C,
{8}E2,,,B7,,,B3,E6,
,B1,,B6,{4}E3,E7,
{8}E1,,,E3,,,E7,B2/B3,
,E8,,B5,{4}E3/B2,B6,
{8}B2,7,7,B4,6,6h[8:1],{16},,3,5,
4,6,4,6,3,5,3,5,4,5,{32}4x,5x,{16}4x,6,3,5,4,
{8}5<8[2:3],,,4h[4:1],,,{4}3h[4:1],
{8},2h[4:1],,,{4}1,1,
1>4[1:1],{8}7,7,,6,{4}6,
{8}5,5,{16}5,6,7,8,1,2,3,4,1,2,3,4,
{4}5<8[2:3],{8}4,3,,3,{4}2,
{8}2,1,,1,2,3,{16}4,3,2,1,
{4}8V24[2:3],{8}7,6,,6,{4}5,
{1}Ch[4:3],
{8}2,3,4,3,4,5,4,5,
6,5,6,7,{4}8-4[8:1],8,
{8}1,2,3,8,1,2,7h[8:1],8h[8:1],
1h[8:1],2h[8:1],3h[8:1],4h[8:1],5h[8:1],6h[8:1],7h[8:1],8h[8:1],
1-5[8:1],8,1,7-4[8:1],8,7,2-5[8:1],1,
2,8-4[8:1],1,8,{4}1v6[8:1]*v4[8:1],1,
{8}7-5[8:1],7,7,1-3[8:1],1,1,8-4[8:1],8,
8,3,2,1,8,1,2,3,
{4}4>1[16:3],{16}8,7,6,5,{4}4-8[8:1]/8x-4[8:1],{16}8/4,C,,,,,,,,,,,{8}3-8[8:1],
8-3[8:1],{4}3<3[2:1],
,,C,{8}4-2[8:1],2-6[8:1],
{2}6-1[8:1],{8}5h[8:1],B5/B6,2h[8:1],B2/E3,
{32}8b,7,6,5,,,,,{16}2,3,{8}3,{4}1-6[8:1],1/2-5[8:1],
2,{8}7,5,6,4,5,3,
4,C,E1,6,E2,C,8,{16}1,8,
2,7,2,7,3,6,3,6,4,5,3,6,2,7,1,8,
{8}1>7[8:3],,,7>5[8:3],,,{4}5<3[8:3],
{8},3-7[8:1],,5-8[8:1],,5,{4}C,
{8}2-5[8:1],1,2,7-4[8:1],8,7,2>5[8:1],1,
1,8<5[8:1],1,1,1-5[8:1],1,{4}1,
{2}8h[4:3],{24}1,2,3,4,5,6,{4}7b,
{1}1-5[12:1],
{16}2/8,,,2/8qq5[16:23],,,,,1,,,2,,,{8}3,
{16}1,,,2,,,{8}3,{16}4,,,3,,,{8}2,
1h[4:1],5,5,2h[4:1],6,6,3h[4:1],7,
7,4h[4:1],8,8,5h[2:1],1,1,1,
{32}1,8,7,6,{8}5h[8:1],4,5h[4:1],4,4,6h[4:1],3,
3,7h[4:1],2,2,8h[2:1],1,1,1,
{16}1,2,3,4,1-5[8:1],2,3,4,{4}1b,4h[4:1],
{8}6,7/4h[4:1],,7,{4}8/4h[4:1],{8}8,8,
{32}1x,8x,2x,7x,3x,6x,4x,5x,,,,,{8}4h[4:1],,5,{4}6/3h[4:1],
{8}6,7/2h[4:1],,7,8/1h[4:1],7,{4}6<1[8:1],
{24}6b/2b,3,4,5>2[8:1],,,,,,5b/1b,8,7,{4}6<1[8:1],{24}6b/2b,3,4,5>2[8:1],,,,,,5b/1b,
8,7,{4}6p1[8:1],{8}6,,,2,
{16}7,7,8,8,1,1,{8}2>5[8:1],,2,{4}6v1[8:1],
{8}6,2p5[8:1],,2,{4}8-4[8:1],{8}8,3h[8:3],
,,,4h[4:1]/2h[4:1],,,{4}5h[4:1]/1h[4:1],
{8},8h[4:1]/6h[4:1],,,7h[8:3],,,C,
1>4[16:1],8,1,{16}7,5,,2,{8}4,{16}1,8,1,8,
1,1,2,2,3,3,4,4,5,5,6,6,7x,8x,1x,2x,
{1}4b/3b,
{8},,,,,,E7,E3,
,,,,,,E5,E1,
,,,,,,E8,E4,
,,,,,,,,,,,,,,E2,
E6,
,,,,,,B7/E7/B6,B2/B3/E3,
,,,,,,B8/B7,B4/B3,
,,,7,{16}2,4,3,5,4,6,5,7,
8,6,1,7,2,8,3,1,2,4,3,5,4,6,5,7,
{8}4-8[8:1],{16},,,,,,,,,,,,8,1,
2b/5b,,,4b/3b,,,{8}7b/8b,{16},5b/2b,,,3,4,3,4,
{2}5b/2b,{16}1,6,3,8,2,5,4,7,
{8}3-1[8:1],1-5[8:1],{4}5-8[8:1],{16},,,,,,1,7,
{8}1-3[8:1],3-5[8:1],{4}5-7[8:1],{16},,,,,,1,2,
{8}3/6,{16}4,5,4,5,{8}4,{16}1,8,2,7,1,8,2,7,
{8}1-4[8:1],8,7,6-1[8:1],5,4,3-6[8:1],2,
1,8-3[8:1],7,6,5<8[8:1],4,3,2,
1x<6[8:1],2,3,4>1[8:1],5,6,7<4[8:1],8,
1,2<7[8:1],3,4,5>2[8:1],6,7,8,
1<8-6[8:1],2,3,4>3-1[8:1],5,6,7<6-4[8:1],8,
1,2<1-7[8:1],3,4,5,5,5<6-8[8:1],4,
3b,2>3-5[8:1],1,8b,7>8-2[8:1],6,5b,4<5-7[8:1],
3,2b,1>2-4[8:1],8,7,6,5,4,
3/7,{16}5,5,{8}5,2/8,{16}1,1,{8}1,7/5,{16}6,6,
{8}6,2/5,{16}3,4,3,5,3,6,3,7,3,8,3,1,
{8}2b,2b,2b,{16}6,5,{8}6,{16}3,4,{8}3,{16}7,8,
{8}7,{16}2,1,{8}2,8/2,{16}1/5,2,3,4,5/1,6,7,8,
{8}1x/5x,2/6,3/7,4/8,1/5,2/6,3/7,4/8,
5/1,2/6,3/7,4/8,5>2[8:1]/1<6[8:1],5/1,{4}5/1,
{8}5/1,5/2,5/3,4/5,4/6,4/7,{16}5,6,5,6,
4,7,3,8,2,1,3,8,4,7,5,6,4,5,2,7,
{8}1-5[16:1],{16}1,8,{8}1,7-4[16:1],{16}7,6,{8}7,2-5[16:1],{16}2,3,
{8}2,8-4[16:1],{16}8,1,{8}8,{16}2,3,2,3,2,3,2,3,
{32}1b,8,7,6,{8}5,8,7/1,5/3,2/8,4/6,1/7,
{16}2,2,{8}8,{16}5,5,{8}2,{16}4,5,4,5,3,3,6,6,
{4}1-5[8:1],{8}1,6-8[16:1],,6,{4}2-5[16:1]*-4[16:1],
{8}2,6-1[16:1]*-8[16:1],,6,{4}4-8[8:1],4,
{32}1b/5b,2/6,3/7,4/8,,,,,{8}4,{32}4b/8b,3/7,2/6,1/5,,,,,{8}1,{32}1b/5b,2/6,3/7,4/8,,,,,{16}4,
4,4,4,{8}5/3,{16}6,6,{8}8,{16}4,4,2,2,7,7,
{32}8b,1,2,3,{8}4,6,7/5,5/3,3/1,1/7,8x-6[8:1],
8x-2[8:1],8x-5[8:1],8x-3[8:1],8x-4[8:1],8x,8x,2,2,
{16}5,5,6,6,7,7,{8}8-3[8:1],,8,{4}4-7[8:1],
{8}4,1-5[8:1],,1,7>2[8:1]*<4[8:1],,,A3/D3/D4,
6<1[8:3],,,1>3[8:3],,,{4}3<6[8:3],
{8},6<2[8:3],,,2,,,7,
{32}1b,2,3,4,,,1b,2,3,4,,,1b,2,3,4,8b,7,6,5,,,8b,7,6,5,,,8b,7,6,5,
{8}4,2,{16}8,1,{8}8,{16}2,2,7,7,1,1,8,8,
{8}1q5[8:1],5q1[8:1],,Cf,,7/2,{16}1,8,2,7,
3,6,4,5,3,4,2,5,1,6,8,7,1,8,2,7,
{32}1b,2,3,4,{8}5,7,{32}1b,8,7,6,{8}5,3,{32}3b/7b,2/6,1/5,8/4,,,,,{8}1/5,
{32}1b/5b,2/6,3/7,4/8,,,,,{8}8-4[8:1],4-8[8:1],8,{16},,,,1,
8,1,8,2,7,2,7,3,6,3,6,4,5,4,5,
3,4,3,4,2,5,2,5,1,6,1,6,8,7,8,7,
{32}8b,1,2,3,{16}6,5,6,5,{8}6,{16}3,4,2,5,3,4,2,5,
8,7,1,6,8,7,1,6,1,8,1,7,1,6,1,5,
1x,5,2,6,3,7,4x,8,5,1,4,8,3x,7,2x,6,
1,5,2,6,3x,7,4,8,5x,1,4,8,3x,7,2,6,
1b,5,1,5,2,6,2b,6,3,7,3,7,4b,8,4b,8,
4,8,3b,8,2,8,1,8,1b,8,2,7,1,8,2,7,
1b,E8,1,E7,1,E6,1b,E5,2,E1,2,E8,2b,E7,2,E6,
3b,E2,3,E1,3b,E8,3,E7,4b,E3,4b,E2,4,E1,4,E8,
4b,5,3,6,2,7,1,8,3,4,2b,5,1b,6,8,7,
5,6,4,7,3b,8,2b,1,{24}2,1,2,1,2,1,3b,8,3,8,3,8,
{12}4,4,4,5,5,5,2,3,{96}4,,,,,,,,,,,3,,,,,,,,,{32}4,,,5,
{64},,,,,4,,,,,,5,,,,,,,{32}6,,,5,,,6,{64},,,,,7,,,,,,6,,,,,,,{32}7,{64},,,,,8,,,,,,,7,
,,,,,,8,,,,,,,{32}1,,,{16}Cfh[16:107],
E
