&title=inkar-usi
&artist=DIA
&first=0
&des=尘落南丘
&lv_5=11+
&inote_5=(102)
{24}6h[12:5],,,,,,,,,,2x,3x,4xh[12:5],,,,,,,,,,8x,7x,
{4}6xh[4:1],3h[8:1],7h[8:1]/5h[8:1],
{8}2,6,3,7,
{4}4,8h[4:1],2h[4:1],4h[4:1],6q1[4:1]*qq3[4:1],,,
{8}4h[8:1],8-3[12:1],6h[8:1],8,5h[8:1],1-6[12:1],3h[8:1],1,
{8}4h[8:1],8,35,1,7h[8:1],6h[8:1],5h[8:1],3,
{8}4h[8:1],1<6[12:1],3h[8:1],1,4h[8:1],8>3[12:1],6h[8:1],8,
{8}5h[8:1],1,64,8,2h[8:1],3h[8:1],4h[8:1],6,
{4}1p7[2:1]/5,C,7<2[4:1],B5,8h[4:1],
{8}2,5,1,6,2,7,
{4}3q5[2:1],C,5x>3[8:1],
{8}7,6,
{2}5h[4:1]/2h[32:7],4h[4:1]/7h[32:7],
{4}8q2[2:1]/4,C,2>7[4:1],B4,1h[4:1],
{8}7,4,8,3,7,2,
{4}6p4[2:1],C,4x<6[8:1],
{8}2,3,
{2}4h[4:1]/7h[32:7],5h[4:1]/2h[32:7],
{2}4h[8:3]/8h[8:7],
{24}2h[2:1],,,,,,,,,,7x,6x,
{2}5xqq2[8:3]*<8[8:3],
{4},{8}3,2,
{2}5h[8:3]/1h[8:7],
{24}7h[2:1],,,,,,,,,,2x,3x,
{2}4xpp6[8:1]*qq2[8:1],
{8}5h[8:1]/3h[8:1],,2,1,8-4[4:1],7,8,5h[4:1],,,7,8,1-5[4:1],2,1,4h[8:1],,,
{8}7,8,
{4}1>5[4:1],5<1[4:1],1>5[4:1],5bqq6[4:1],6b<3[4:1],3x<8[4:1],8x>4[8:1],,
{4}3-1[12:1]*-5[12:1],3bw7[8:1],
{24}3b,,,,,4,3,,5,4,,6,
{4}5-1[8:1],7-3[8:1],4h[8:1],{8}6h[8:1],8,5h[8:1],8,6h[8:1],8,3h[8:1],
{24},,5,6,,4,5,,3,
{4}4-8[8:1],2-6[8:1],5h[8:1],{8}3h[8:1],1,4h[8:1],1,3h[8:1],1,6h[8:1],,
{8}3p5[4:1],4,5<3[4:1],,4h[4:1],,,6h[8:1],1,3h[8:1],8,E6/B5/E5,1,E4/B4/E5,2h[8:1]/7h[8:1],,
{8}25,3,4>1[8:1]*<7[8:1],,4bw8[8:1],,4b,,
{8}3,4,5xpp8[4:1],,,,1xpp4[4:1],,,,
{4}7h[12:5],
{24}8,,,,8,1,{4}2h[12:5],
{24}7,,,,7,6,{4}5p3[8:3],Cf,,
{8}1,2,3h[12:5],,
{24}1,,,,1,8,{4}7h[12:5],
{24}2,,,,2,3,{4}4q6[8:3]*>6[8:3],,,
{8}38,,2h[12:5],,
{24}4,,,,4,5,{4}6h[12:5],
{24}3,,,,3,2,{4}1p7[8:3],Cf,,
{8}26,5,4,37,
{4}2xv5[8:1],1xv4[8:1],8xv3[8:1],7xv2[8:1],6xv1[8:1],5x<8[8:1]*>2[8:1],5x,
{1}7pp2[2:1]/3pp6[2:1],
{4}8b/1b-5[12:1],1b/2b-6[12:1],
{24}2b/3b,,,,,5,4,,6,5,,7,
{4}6pp1[8:3],5>2[8:1],5,{8}4h[8:1],2,5h[8:1],1,4h[8:1],2,8xh[8:1],
{24},,4,5,,3,4,,2,
{4}3qq8[8:3],4<7[8:1],4,{8}5h[8:1],7,4h[8:1],8,5h[8:1],7,1xh[8:1],,
{8}6q4[4:1],5,4>6[4:1],,5h[4:1],,,3h[8:1],8,6h[8:1],1,53,8,64,5h[8:1]/2h[8:1],,
{8}74,6,5<8[8:1]*>2[8:1],,5bw1[8:1],,5b,,
{8}37,26,1-4[4:1]/5-8[4:1],,,,
{24},,,,,8,1,,7,8,,6,
{4}7qq4[8:3],8>3[8:1],8,{8}1h[8:1],3,8h[8:1],6,4xh[8:1],5xh[8:1],6xh[8:1],
{24},,1,8,,2,1,,3,
{4}2pp5[8:3],1<6[8:1],1,{8}8h[8:1],6,1h[8:1],3,5xh[8:1],4xh[8:1],3xh[8:1],,
{8}7p1[4:1],8,1>7[4:1],,4h[4:1],,,2h[8:1],5,7h[8:1],4,82,5,71,8h[8:1]/3h[8:1],,
{8}61,7,8<5[8:1]*>3[8:1],,8bp3[8:1]*q5[8:1],,8b,,
{8}2,1,2>5[8:1]/8<5[8:1],,8bp5[8:3]/2bq5[8:3],,2b/8b,,,,
{1}B2/E3/E7/B7/C,E
