&title=夢にかけるRainbow
&artist=765 MILLION ALLSTARS
&first=0.02
&des=失鸭勺力杀
&lv_5=12+
&inote_1=(136)
{4}1,1,1,1,1,1,1,1,1,1,1,1,1,1,1,1,1,1,1,1,1,1,1,1,1,1,1,1,1,1,1,1,1,1,1,1,1,1,1,1,1,1,1,1,1,1,1,1,1,1,1,1,1,1,1,1,1,1,1,1,1,1,1,1,1,1,1,1,1,1,1,1,1,1,1,1,1,1,1,1,1,1,1,1,1,1,1,1,1,1,1,1,1,1,1,1,1,1,1,1,1,1,1,1,1,1,1,1,1,1,1,1,1,1,1,1,1,1,1,1,1,1,1,1,1,1,1,1,1,1,1,1,1,1,1,1,1,1,1,1,1,1,1,1,1,1,1,1,1,1,1,1,1,1,1,1,1,1,1,1,1,1,1,1,1,1,1,1,1,1,1,1,1,1,1,1,1,1,1,1,1,1,1,1,1,1,1,1,1,1,1,1,1,1,1,1,1,1,1,1,1,1,1,1,1,1,1,1,1,1,1,1,1,1,1,1,1,1,1,1,1,1,1,1,1,1,1,1,1,1,1,1,1,1,1,1,1,1,1,1,1,1,1,1,1,1,1,1,1,1,1,1,1,1,1,1,1,1,1,1,1,1,1,1,1,1,1,1,1,1,1,1,1,1,1,1,1,1,1,1,1,1,1,1,1,1,1,1,1,1,1,1,1,1,1,1,1,1,1,1,
&inote_5=(136)
{4},,,,,,,,,,,,,,,,,,,,
7-3[4:2]/2-6[4:2],,,,4-1[4:2],,,,7p6[4:2],,,,4V27[4:3]/8V63[4:3],,,,,,,,
{4}
3h[4:1]/4,8,6h[4:1]/5,1,3h[4:1]/4,8,6h[4:1]/5,1,
7-5[8:1]/4-2[8:1],74,2-4[8:1]/5-7[8:1],25,
7>2[8:1]/3h[8:1],4,5q2[8:1],7,
1pp1[4:1]/8qq8[4:1],1>4q8[4:1]/8<5p1[4:1],,,
1pp1[4:1]/8qq8[4:1],1>4q8[4:1]/8<5p1[4:1],
,,
{8}6h[8:3],8,1,2h[8:4],,3,4,5q6[4:1],,,
,,4xv2-4-8[4:1]/5xv7-5-1[4:1],
,,,,,,,,,,,
{4}
1/8p3[4:2],1,1,1,1/3pp6[4:2],1,1,1,1/6qq7[4:2],1,1,1,1/5<8[4:2],1,1-4b[8:1],1,
8/4xV62[4:2],8,8,8,8/2-5V31[4:2],8,8-5b[8:1],8,
{16}2h[16:4]/5,,6,,7h[16:4],,3h[16:2],,,,8,,1,,2-6[8:1],,,,,,,,45,,
B2,B7,E4,E6,B1,B8,B3,B6,
2>5[8:1],,,,8,,,6-1[8:1],,5,6,,2,,,,
8>3[8:1],,8,,6,,,4-7[8:1],,3,4,,8,,,,
3pp6[4:2],,,,2,,2,,1,,1,,8,,8,,7h[16:3],,,6h[16:3],,,5h[16:2],,
2bh[16:3],,,3bh[16:3],,,4bh[16:2],,
1<6[8:1],,,,3,,,5-2[8:1],,6,5,,1,,,,
3>8[8:1],,3,,5,,,7-4[8:1],,8,7,,3,,,,
2,,2V46[4:1],,6,,6V82[4:1],,,,3,,4,,5,,6,,,,3b/7b,,,,
6,5,6,,3,4,3,,
{4}5pp8[4:2]/2pp5[4:2],,,,3qq4[4:2]/7qq8[4:2],,,,1<4[4:2]/5>8[4:2],,,,
{16}8v2[8:1]/4v6[8:1],,,,,,,,2h[64:1],,,3h[64:1],,,4h[64:1],,
56,,,3,4,,45,,
56,,,3,4,,56,,
3,4,,4,5,,
3h[16:1]/6h[16:1],,3h[16:1]/6h[16:1],,
2h[16:1]/7h[16:1],,2h[16:1]/7h[16:1],,
1b/8b,,
E7,,,,,,,,C,,,,,,,,E3,,,,,,B7,C,B3/1w5[8:1],,,,
,,,,
25,,3,4,3,,6,5,6,,2,4,2,,7,5,7,,1,3,1,,8,6,8,,
2,1,3,8,4,7,
56,,,34,,,21,,87,,,56,,,34,,2bh[4:3]/7bh[4:3],,,,,,,,,,,,,,,,
5-1[8:1]/3,,,4x,57,,6,,4-8[8:1]/5,,3,,4/1>4[8:1],,1,,
7h[16:3],,,6h[16:3],,,5h[8:5],,1b,,,,1b,,2,3,
4qq2[8:1],,,,48,,6,5,4pp6[8:1],,,1,4/1pp2<3[4:2],,2,,
6h[4:1],,,,,,,,1qq7[8:1]*pp3[8:1],,,,1,,,,
3-8[8:1]/7-4[8:1],,,37,,,,,2,4,,8,,3,5,,
6-1[8:1]/2-5[8:1],,,62,,,,,7,5,,1>4[4:1],,6,4,,8h[8:2],,,,,,,,
7/4h[16:3],,,6,6>7[8:3],,4,,2h[4:1],,,,,,3,,6,,,5-8[8:1]/4-1[8:1],,,63,,
,,,2,4,,3h[16:6],,,,8,,7,,6h[16:3],,,2,5h[16:2],,3,4h[16:2],,,
2h[8:1],,1h[8:1],,8h[8:1],,7h[8:1],,
2h[8:2],,,4,4,,6h[8:2],,,,8,,1-4[4:2],,1,,,7h[16:1],,,6h[16:1],,,,
5h[16:3],,,3h[16:3],,,5,,
6-3[8:1],,,,6-2[8:1],,,,6-1[8:1],,,,6,,,,,,4-7[8:1]/5-2[8:1],,,,,,,,,,,,,,
1>4[4:2]/8<5[4:2],,,,,,,,,,,,,,,,
2-6[4:2]/7-3[4:2],,,,,,,,,,,,,,,,
6x,5x,4x,3x,2x,1x,8x,7x,6x,5x,4x,3x,2x,1x,8x,7x,
{12}6xh[12:8],,2h[64:1],,5h[64:1],,1h[64:1],,7h[64:1],{16},,,,
{32}6xh[4:15]/7x,8x,1x,2x,,,,,3x,2x,1x,8x,,,,,
7x,8x,1x,2x,,,,,3x,2x,1x,8x,,,,,7x,8x,1x,2x,,,,,3x,2x,1x,8x,,,,,
7x,8x,1x,2x,,,,,3x,2x,1x,8x,,,,,7x,8x,1x,2x,,,,,3x,2x,1x,8x,,,,,
7x,8x,1x,2x,,,,,2x,1x,8x,7x>6[4:1],,,,,
{16},,,,,,,,7-2[8:1],,,,,,,,
{4}
1pp1[4:1]/8qq8[4:1],1>4q8[4:1]/8<5p1[4:1],,,
1pp1[4:1]/8qq8[4:1],1>4q8[4:1]/8<5p1[4:1],
,,
{8}6h[8:3],8,1,2h[8:4],,3,4,5q6[4:1],,,
,,4xv2-4-8[4:1]/5xv7-5-1[4:1],,,,,,,,,,,,,,,,,,,,3-5v8[4:7]/7-1v4[4:7],
