&title=World Fragments III(radio edit)
&artist=xi
&first=0.03
&des=sarfatation
&lv_5=14+
&inote_5=(200)
{4},,2/7,3/6,
{1}5/4qq1[4:5],
{4},,8,{16}}1^4[16:2]/8^5[16:2],,,,
{16},,,,1V73[16:16]/8V26[16:16],,,,,,,,,,,,
{4},,,{16},5q8[16:12]/4-1[16:12],,,
{4},,,,
{1}2b>8[16:24]/7b<1[16:24],
{1},
{4},6q3[2:1],,4,
{4}7^2[2:1],,5,,
{4}6p3[16:14],,,2,
{1}1p5[2:1]*q5[2:1],
{4}3q6[16:14],,,7,
{1}8-4[16:8],
{8}5/6pp1[16:10],,4,,3,,2,,
{8}2pp5[16:10],,1,,8,,7,,
{8}6^1[8:1],,5/6,,3^8[8:1],,3/4,,
{8}7^4[4:1],,4^1[4:1],,1V75[16:5],,5,,
{8}3,3,2/4,2/4,1/5,1/5,6/8,,
{8}6,6,5/7,5/7,4/8,4/8,1/3,,
{16}3,7,3,7,3,7,3,7,1,5,1,5,1,5,1,5,
{8}1s5[16:8],,6,,8-4[8:1],,,,
{8}3,3,4,3h[2:1],,4,5,6,
{8},5/6h[16:8],,,2,3,4,5,
{8}7h[4:1]/8h[4:1],,,7h[4:1]/6h[4:1],,,,1h[4:1]/2h[4:1],
{8},,1/2,,7,6,5,4,
{8}3q1[16:10],,5,,5,,6,,
{8}7q5[16:10],,1,,1,,2,,
{8}3-8[8:1]*-6[8:1],,,,{12}7,5,6,2,4,3,
{8}8-4[8:1],,,,{16}2/6,,3/5,,4,3,5,4,
{8}6b,3,4,3h[2:1],,4,5,6,
{8},6h[16:6]/5,,,{24}3,,,5,4,5,4,,,6,,,
{8}7h[4:1]/8h[4:1],,,7h[4:1]/6h[4:1],,,,1h[4:1]/2h[4:1],
{8},,1/2,,3,4,5,6,
{12}1b/8b,,,2,3,4,8,7,6,1,2,3,
{12}4/5,6,7,4,3,2,6,7,8,4,3,2,
{16}1/5,,1/5,,3,4,3,,4/8,,4/8,,6,5,6,,
{16}1/2,,,5/6,,,7/8,,,3/4,,,4b/8b,,2b/6b,,
{1}3bqq6[1:1],
{1}7pp3[1:1],
{1}1s5[2:3],
{1},
{16}6/4,3,6/2,,6/2,,6/2,,3/7,,4/8,,1/5,,,,
{16}3/5,6,3/7,,3/7,,3/7,,6/2,,5/1,,8/4,,,,
{16}2,1,3,8,4,7,5,6,3,4,2,5,1,6,8,7,
{32}1,2,3,4,5,6,7,8,1qq4[16:6],2,3,4,5,6,7,8,1,,,,,,,,5b,,,,,,,,
{16}6h[16:2],,1,1,7h[16:2],,2,2,8h[16:2]
,,3,3,7h[16:2],,2,2,
{16}8,7,6,5,1,2,3,4,7,6,5,4,8,1,2,3,
{16}8/4V26[4:1],,7,,6-1[8:1],,5,,,,5,,7,,1/8,,
{16}4,3,2,1,8/4,5,6,7,8/4,3,2,1,8/4,5,6,7,
{16}4bv2[8:1]/8bv6[8:1],,,,,,,,3/7,,3-8[8:1]/7-4[8:1],,,,3b/7b,,
{16},,,,,,2/6,3/7,4/8,,2-5[8:1]/6-1[8:1],,,,2b>8[16:11]/6b,,
{16},,,,1,,1,,2,,2,,2,,2,1,
{16}3,,4,,4,,6,5,7,,4,,3/5,,2/6,,
{16}8b,,,,2,1,2,1,3,8,3,8,4,7,4,7,
{16}5/6,,2,3,4h[8:1],,7,6,5,4,3,2,1/5,8/4,7/3,6/2,
{1}5b/1b<1[1:2],,1<1[16:30],,
{8}8,8,8,1,7,6,5/4,,
{8}1,1,1,8,2,3,4/5,,
{16}8,,8,,8,,1,,7,6,5,,1-4[8:1],,2,,
{8}1/6-8[8:1],5,6/3V15[16:4],4,3,8,7b^4[8:1],,
{8}7/3-8[8:1],,7^4[8:1]/3,,7/3-8[8:1],,7^4[8:1]/3,,
{8}7/3V17[16:3],,7,6,5^8[8:1],,1-4[8:1]/5,,
{8}1/5<3[16:5],,5,3,4-1[8:1],,5-8[8:1]*-7[8:1],,
{8}5b-2[8:1]*-3[8:1],,5b-1[8:1],,5b,,{16}48,37,26,15,
{8}4/8^3[8:1],,4-7[8:1]/8,,4/8^3[8:1],,4-7[8:1]/8,,
{8}4/8V24[16:3],,5,6,7-3[8:1],,1-4[8:1]*^4[8:1],,
{8}1b^6[8:1]*-6[8:1],,1bw5[8:1],,1b,,3bqq8[16:10]/7h[16:4],,
{8},,7-4[8:1],7,7,,{16}2^5[8:1]/6,,,,
{8}2/6-1[8:1],,2^5[8:1]/6,,2/6-1[8:1],,2^5[8:1]/6,,
{8}2/6V82[16:3],,2,3,4^1[8:1],,8-5[8:1]/4,,
{8}8/4>6[16:5],,4,6,5w1[8:1],,5,,
{16}7/3,,,4/6,,3/5,,,2/6,,,3/5,,4/6,,,
{24}3h[4:1]/7b,,,,,,7,8,1,2,3,4,5,6h[24:11],,,,,2b,,,,,,
{24}2,1,8,7,6,5,4,3h[24:5],,,,,7b,,,5b/1b,,,,,,,,,
{8}3/4,3/4,4/2,4/1,6/5,6/5,5/7,5/8,
{16}3,4,3,4,2,4,2,4,{32}1,8,7,6,5,4,3,2,1b-4[8:1]/5b,,,,,,,,
{8}1-7[8:1]/6-2[8:1],7,6/1-4[8:1],,1-7[8:1]/6-2[8:1],7,6/1-5[8:1],,
{8}1/6V82[16:3],,3,4,5-1[8:1],,5/7-4[8:1],,
{8}2>7[16:5]/7,,2,1,8-5[8:1],,1-3[8:1]*-4[8:1],,
{8}1b-7[8:1]*-6[8:1],,1b-5[8:1],,1b,,{16}48,37,26,15,
{8}8/4-1[8:1],,4-6[8:1]/7-3[8:1],6,7/4-1[8:1],,4-6[8:1]/7-3[8:1],6,
{8}7/4V28[16:3],,7,6,5-1[8:1],,5/4,,
{24}2b/7h[8:1],3,4,5,,,7b/2h[8:1],6,5,4,,,1b/6h[8:1],2,3,4,,,8b/3h[8:1],7,6,5pp1[16:8],,,
{8},,2-5[8:1],2,2,,8-5[8:1]/4,,
{8}8-2[8:1]/3-7[8:1],2,3/8-5[8:1],,8-2[8:1]/3-7[8:1],2,3/8-4[8:1],,
{8}8/3V17[16:3],,6,5,4-8[8:1],,4/2-5[8:1],,
{8}7<2[16:5]/2,,7,8,1w5[8:1],,1,,
{16}8b/2b,,,6/4,,3/5,,,1b/7b,,,5/3,,6/4,,,
{24}7h[4:1]/3b,,,,,,3,4,5,6,7,8,1,2h[24:11],,,,,6b,,,,,,
{24}6,5,4,3,2,1,8,7h[24:5],,,,,3b,,,1b/5b,,,,,,,,,
{8}7/8,1/6,2/5,3/4,2/1,8/3,7/4,6/5,
{16}1b,8,3,6,2,7,4,5,{32}1b,2,3,4,5,6,7,8,1/5b-1[8:1],,,,,,,,
{1}5bw1[2:3],,
{8}6,6,5,6h[4:1],4,3,,4/5,
{8},8,7/1,6/2,{16}3,4,5,,2/6,,1/7,,
{8}2,2,1,2h[4:1],8,7,,1/8,
{8},4,3/5,2/6,{16}7,8,1,2,3,4,5,6,
{8}7/3,3,4,3h[4:1],5,6,,4/5,
{8},1,2/8,3/7,5w1[8:1],,,,
{8}4/5h[8:1],,5h[8:1]/3p6[4:1],,5h[8:1],,5h[8:1],,
{8}1h[8:1]/8,,1h[8:1]/7qq3[16:7],,1h[8:1],,1,1,
{16},,1b/4b,2/5,3/6,4/7,5/8,,4b/7b,3/6,2/5,1/4,3/8,,,,
{8}1/2b,3/8,4/7,5/6,4b/5,3/6,2/7,1/8,
{16}2b/7b,,,,2,4,2,4,3,5,3,5,2,4,3,5,
{16}2b,,,,7,5,7,5,6,4,6,4,7,5,6,4,
{12}7b,1h,5,3h,7,5h,8b,2h,4,8h,6,4h,
{12}7b,7,7,3,3,3,{24}8,1,2,3,4,5,7,8,1,2,3,4,
{8}5pp2[16:24]*qq8[16:24],,5b,,,,,,
{1},
{8}8z4[1:1],,,,,,,3,
{8},,,,2,,3,,
{1}4<4[16:24],
{8}5p8[16:8],,,,,,,,
{32}8b,7/1,6/2,5/3,4w8[8:1],,,,,,,,{8}4b,,,6/2,,
{8}5bw1[8:1],,,,7b-2[8:1]/3b-6[8:1],,,,
{8}7-4[8:1],,7/8,,1-5[8:1],2,1/3,,
{8}2-5[8:1],,2/1,,8-4[8:1],7,8/6,,
{8}7-4[8:1]/3-8[8:1],,3/7,,2-5[8:1]/6-1[8:1],,2/6,,
{8}7<3[4:1],,3>7[4:1],,7V51[16:5],,4,,
{8}3,3,2/4,2/4,5,5,4/6,4/6,
{8}7,7,8/6,8/6,1,1,2/8,2/8,
{16}3,7,4,8,5,1,4,8,3,7,2,6,1,5,8pp4[16:12],4pp8[16:11],
{8},,,,,{32},,,,,,,,,,,,
{4},6bp4[16:84]/2bp8[16:84],,,
{1},,,,,,,E
