&title=Before I Rise
&artist=麻枝 准×やなぎなぎ
&first=0.05
&des=「ヘブンバーンズレッド」
&lv_5=12+
&inote_5=(140){1},,,
{4}4h[2:1]/5,,5h[4:3],,4,3h[2:1],,4h[2:1],,5h[2:1],,{8}6,6h[8:3],,,2,3,4,,
4h[4:2],,,,7,6,5h[4:3],,2,,3,,4h[4:2],,,,8,7,6<4[4:2],,2h[4:2],,,,,,,,
{4}5/4h[4:2],,5,5/6h[2:1],,5h[2:1],,4h[2:1],,{8}3,3h[8:3]/4,,,7,6,4-2[8:1]/5,,
5h[4:2],,,,2,3,4/5-7[8:1],,4-2[8:1],,8-4[8:1],,3h[4:2],,,,7,6,5h[4:1],,
{16}4,5,4,5,4,5,4,,
{8}4p2[8:3]/5,,,7,6,5<8[8:1],,2h[8:3],,,1,8-3[8:1]/3,,4-1[8:1],,5h[8:3],,,
2,36,4/7-4[8:1],,3-6[8:1],,7,8<5[8:1],,2,1>4[8:1],,,,
5q7[8:3],,,2,3,4>1[8:1],,7h[8:3],,,8,1-6[8:1]/6,,5-8[8:1],,
4h[8:2],,3s7[4:5],,{4}2h[8:13],,,,,,{8},
1<6[8:1],,,3,2,1v4[8:1],,8h[8:3],,,6,5-1[8:1]/7,,7-4[8:1],,3>8[8:1],,,
7,6,5<8[8:1],,1>4[8:1],,6,7p3[8:1],,3,2q6[8:1],,,,
1<6[8:1],,,3,2,1v4[8:1],,5h[8:3],,,
2h[8:1],4h[8:1],2h[8:1],3h[8:1],2h[8:1],1h[8:1],{4}3V16[4:4]*V58[4:4],,,,,,
{8}2,1,8q6[4:1]*V24[4:1],,,,,,6v3[8:1],,2v7[8:1],,8,8<5[8:1]*>3[8:1],,8,,
4q7[8:3]*qq8[8:3],,,,,,,3v6[8:1],,7v2[8:1],,1,1>4[8:1]*<6[8:1],,1,,
5<2[8:3]*qq4[8:3],,,,,,,5v8[8:1],,1v4[8:1],,7,7-3[8:1]*-4[8:1],,7,,,
2-6[8:1],2,8-5[8:1],8,4-1[8:1],4,6h[4:1],,{16}8,1,2,3,
{8}1v7[4:1]/4v2[4:1],,,,,,3q7[8:1],,8p4[8:1],,2,2-6[8:1]*-4[8:1],,2,,
5V37[8:3]/7V15[8:3],,,,,,,8q4[8:1],,6q2[8:1],,5,5-7[8:1]*-1[8:1],,5,,
2pp6[8:3]/8pp6[8:3],,,,,,,5q1[8:1],,3q7[8:1],,8,8-4[8:1],,48,3,12,
8/3-8[8:1],,3/7-4[8:1],6,7/1-5[8:1],2,1w5[8:1]*w5[8:1]/8,,1,,
3b>8[8:1]/7b<4[8:1],,37,,4<7[8:1]/8>3[8:1],,48,,
2-6[8:1]/6,53,62,7,8-5[8:1]/4-1[8:1],73,84,,
6b<1[8:1]/2b>5[8:1],,62,,5>2[8:1]/1<6[8:1],,51,,
7-3[8:1]/3,46,37,2,1>4[8:1]/5<8[8:1],26,15,,
1bp5[8:1]/5bp1[8:1],,15,,1>4[8:1]/5<8[8:1],,15,,
7-3[8:1]/3,46,73,2,1-5[8:1]/5,24,
1<6[8:1]/5,,1>4[8:1]/3,,
5-2[8:1]/1,,5-8[8:1]/7,,5>2[8:1]/3,,
{16}1,8,7,6,{32}1,8,7,6,5,4,3,2,
{8}4b<7[8:1]/1b-4[8:1],,14,,5>2[8:1]/8-5[8:1],,85,,
8-2[8:1],7-3[8:1],8-4[8:1],7-5[8:1],8>3[8:1],7,8,,
{8}5b>2[8:1]/8bv5[8:1],,85,,4<7[8:1]/1v4[8:1],,14,,
1-7[8:1],2-6[8:1],1-5[8:1],2-4[8:1],1<6[8:1],2,1,,
1bv4[8:1]/5bv8[8:1],,1<6[8:1]/5>2[8:1],,1q6[8:1]/5q2[8:1],,15,,
1-7[8:1],5-1[8:1],1-3[8:1],5-7[8:1],4-8[8:1],5-1[8:1],4>1[8:1],5,4<7[8:1],,
4/1-6[8:1],,1-4[8:1]/4,,1<6[8:1]/7,,
{16}15,4,3,2,{32}15,4,3,2,1,8,7,6,
{8}1b>4[8:1]/5b<8[8:1],,1p5[8:1]/5p1[8:1],,1>4[8:1]/5,,
1/7-3[8:1],6,2-6[8:1]/7,1,8-4[8:1]/2,7,1-5[8:1]/8,2,1>4[8:1]/5<8[8:1],,
1bp5[8:1]/5bp1[8:1],,1V35[8:1]/5V71[8:1],,
1-5[8:1]/5,,1-4[8:1]/3,2,1-6[8:1]/7,8,1-5[8:1]/3,2,16,7,
{8}8p4[8:1]/4p8[8:1],,8b>3[8:1]/4b<7[8:1],,8p4[8:1]/4p8[8:1],,8/4<7[8:1],,
4/1-5[8:1],2,7-4[8:1]/1,8,2-6[8:1]/7,3,8-4[8:1]/2,7,48,3,
{16}3,4,3,2,3,1,4,8,5,7,6,7,8,7,1,6,{32}2,3,4,5,6,7,8,1,2,3,4,5,6,7,8,1,
{4}2h[4:8]/6b,,,,,,,,
{8}6h[8:3],5,4,3,5h[8:3],4,3,2,6h[8:3],5,4,3,7h[8:3],6,5,4,
3h[8:3],4,5,6,4h[8:3],5,6,7,3h[8:3],4,5,6,2h[8:3],3,4,5,
6,5,4,3,6,5,4,3,6,5,4,3,,,,,,,,,E
