&title=月面基地
&artist=sasakure.UK
&first=-0.14
&des=藍取る
&lv_5=12+
&inote_4=6-4[120#12:1],,4-7[120#12:1],,7V15[120#6:1],,6,,,,,,3,,3-7[120#12:1],,
,,,,3,,5-1[120#12:1],,,,6,,65,,,,
7-1[120#12:1],,1-6[120#12:1],,6V84[120#6:1],,7,,,,,,3,,3h[4:1],,
,,5,,6,,7/8-5[120#12:1],,,,1,,18,,,,
3-5[120#12:1],,5-2[120#12:1],,2V84[120#6:1],,3,,,,,,6,,6-2[120#12:1],,
,,,,6,,4-8[120#12:1],,,,3,,34,,,,
,,,,,,,,,,,,,,,,
,,,,,,,,,,,,,,,,
&inote_5=(180)
{16}
,,,,,,,,,,,,,,,,
1b-5[120#3:8],,,,,,,,,,,,,,,,
,,,,,,,,,,,,,,,,
,,,,,,,,,,,,,,,,
,,,,,,,,,,,,,,,,
6,,,,,,7,,,,,,8,,,,
6,,,,,,7,,,,,,8,,,,
4,,,,,,3,,,,,,2,,,,
4,,,,,,7h[8:3]/3,,3h[4:1],,,,,,,,
6-4[120#12:1],,,,3,,3V15[120#6:1],,,,,,3,,7h[2:1],,
,,,,,,5-2[120#12:1],,,,6,,56,,,,
7^1[120#12:1],,,,3,,3qq4[120#4:1],,,,,,3,,6h[2:1],,
,,,,,,5^8[120#12:1],,,,4,,45,,,,
3-5[120#12:1],,,,6,,6V84[120#6:1],,,,,,6,,2h[2:1],,
,,,,,,4-7[120#12:1],,,,3,,34,,,,
2^8[120#12:1],,,,6,,6q7[120#4:1],,,,,,6,,1h[2:1],,
,,,,,,8-4[120#12:1],,,,7,,78,,,,
6-4[120#12:1],,,,3,,3V52[120#6:1],,,,,,3,,8-4[120#12:1],,
,,,,8,,2-5[120#12:1],,,,6,,26,,,,
7^5[120#12:1],,,,2,,2pp1[120#4:1],,,,,,2,,6h[4:1],,
,,,,7,,7/8-4[120#12:1],,,,1,,18,,,,
3-5[120#12:1],,,,6,,6V47[120#6:1],,,,,,6,,1-5[120#12:1],,
,,,,1,,7-4[120#8:1],,,,3,,37,,,,
2^5[120#12:1],,,,7,,7^2[120#12:1]/2,,,,,,47,,5,,
5w1[120#12:1],,,,6,,5b,,,,,,,,,,
2h[8:3],,,,,,4h[8:3],,,,,,3,,4,,
5h[8:3],,,,,,8h[8:3],,,,,,1,,,,
2-6[120#12:1],,,,,,4h[8:3],,,,,,5,,4,,
3h[8:3],,,,,,8h[8:3],,,,,,1,,,,
7h[8:3],,,,,,5h[8:3],,,,,,6,,5,,
4h[8:3],,,,,,1h[8:3],,,,,,8,,,,
7s3[120#4:1],,,,,,,,,,,,,,,,
4h[4:1]/8h[4:1],,,,,,2h[8:3]/6,,6h[4:1],,,,,,,,
3-1[120#12:1]/4-6[120#12:1],,5,,2v5[120#12:1],,34,,,,7,,7,,8,,
7>5[120#6:1],,,,3,,3h[4:1],,,,,,24,,,,
1-3[120#12:1]/5-7[120#12:1],,2,,6-2[120#12:1],,15,,,,3,,3,,4,,
5qq1[120#4:1],,,,6,,6,,,,7,,7,,,,
6-8[120#12:1]/5-3[120#12:1],,4,,7v4[120#12:1],,65,,,,2,,2,,1,,
2<4[120#6:1],,,,6,,6h[4:1],,,,,,75,,,,
8-6[120#12:1]/4-2[120#12:1],,7,,3-7[120#12:1],,84,,,,6,,6,,5,,
4-1[120#12:1],,5,,6,,7-4[120#12:1],,,,8,,78,,,,
2^5[120#12:1]/6^1[120#12:1],,3,,7v2[120#12:1],,26,,,,3,,3,,4,,
5q4[120#6:1],,,,7,,7h[4:1],,,,,,6,5,6,5,
6-1[120#12:1],,7,,3qq8[120#4:1],,4,,,,8>5[120#6:1],,7,,6,,
6h[4:1],,,,,,6-1[120#12:1]*-3[120#12:1],,,,5,,6,,,,
7^4[120#12:1]/3^8[120#12:1],,6,,2v7[120#12:1],,73,,,,6,,6,,5,,
4p5[120#6:1],,,,2,,2h[4:1],,,,,,3,4,3,4,
3-5[120#12:1],,2,,1,,8V27[120#6:1],,,,3,,3,,4,,
5w1[120#12:1],,,,6,,5b,,,,,,1,8,1,8,
1V35[120#6:1],,,,4,,4V68[120#6:1],,,,,,7V13[120#6:1],,7,,
,,,,5,,5h[8:5],,,,,,,,,,
4V28[120#6:1],,,,1,,1V75[120#6:1],,,,,,6V42[120#6:1],,6,,
,,,,7,,7h[8:3],,,,,,,,,,
1/8V24[120#6:1],,,,3,,3V57[120#6:1],,,,,,6V82[120#6:1],,6,,
,,,,4,,4-8[120#12:1],,,,,,,,,,
5V31[120#6:1],,,,2,,2V86[120#6:1],,,,,,7V53[120#6:1],,7,,
,,,,1,,1-5[120#12:1],,,,,,,,,,
8^3[120#12:1],,7,,6,,5p8[120#12:1],,,,1^4[120#12:1],,1,,,,
5pp2[120#4:1],,,,8,,8h[8:3],,,,,,,,,,
6^3[120#12:1],,5,,7,,6-2[120#12:1],,,,3^8[120#12:1],,3,,,,
7pp3[120#4:1],,,,5,,5h[8:3],,,,,,,,,,
4^7[120#12:1],,3,,2,,1p4[120#12:1],,,,5^8[120#12:1],,5,,,,
1pp6[120#4:1],,,,4,,4h[8:3],,,,,,,,,,
2^7[120#12:1],,1,,3,,2-6[120#12:1],,,,7^4[120#12:1],,7,,,,
3pp7[120#4:1],,,,1,,1h[8:3],,,,,,,,,,
2^5[120#12:1],,1,,8,,7,,6^1[120#12:1],,5,,4,,3,,
2pp6[120#3:1],,1,,8,,7-1[120#12:1],,6,,,,,,,,
5-3[120#12:1],,6,,7,,8,,1-7[120#12:1],,2,,3,,4,,
5pp1[120#3:1]*qq1[120#3:1],,6,,7,,,,,,,,,,,,
7^4[120#12:1],,8,,1,,2,,3^8[120#12:1],,4,,5,,6,,
7qq3[120#3:1],,8,,1,,2-8[120#12:1],,3,,,,,,,,
4-8[120#12:1],,8,,1,,2,,3,,4,,5,,6,,
2pp2[120#4:1]/7qq7[120#4:1],,1,,8,,2b/7b,,,,,,,,,,
6/4h[8:3],,,,,,2q6[120#12:1],,,,,,1,,8,,
7h[8:3],,,,,,5-1[120#12:1],,,,,,3,,,,
2h[8:3],,,,,,3q7[120#12:1],,,,,,1,,2,,
3h[8:3],,,,,,7^2[120#12:1],,,,,,4,,,,
3/5h[8:3],,,,,,7p3[120#12:1],,,,,,8,,1,,
2h[8:3],,,,,,4-8[120#12:1],,,,,,6,,,,
1s5[120#3:2],,,,,,7h[4:1],,,,,,7-3[120#6:1],,7,,
,,,,,,,,,,,,5,4,5,4,
6-4[120#12:1],,4-7[120#12:1],,7V15[120#6:1],,62,,,,2,,2,,3-7[120#12:1],,
2,,,,3,,5-1[120#12:1]*v2[120#12:1],,,,6,,5,,,,
7-1[120#12:1],,1-6[120#12:1],,6V48[120#6:1],,73,,,,2,,2,,3s7[120#6:1],,
,,5,,5,,6h[4:1],,,,2,,2,1,2,1,
3-5[120#12:1],,5-2[120#12:1],,2V84[120#6:1],,37,,,,7,,7,,6-2[120#12:1],,
7,,,,6,,4-8[120#12:1]*-7[120#12:1],,,,3,,4,,,,
2-8[120#12:1],,8-3[120#12:1],,3V51[120#6:1],,26,,,,7,,7,,6z2[120#6:1],,
,,4,,4,,3-6[120#12:1],,,,4,,34,,,,
1-5[120#12:1]/7-3[120#12:1],,2,,6s2[120#6:1],,17,,,,4,,4,,3qq4[120#4:1],,
3,,,,4pp4[120#6:1],,4,,,,7,,7,,7,,
8-5[120#12:1]/4-1[120#12:1],,7,,3z7[120#6:1],,84,,,,6,,6,,5q6[120#4:1],,
,,2,,2,,1,,,,3,,3,7,3,7,
8-4[120#12:1]/2-6[120#12:1],,7,,3z7[120#6:1],,82,,,,5,,5,,6pp5[120#4:1],,
6,,,,5qq5[120#6:1],,5,,,,2,,2,,2,,
1-4[120#12:1]/5-8[120#12:1],,2,,6s2[120#6:1],,15,,,,3,,3,,4p3[120#4:1],,
,,7,,7,,8,,,,6,,7,3,7,3,
8h[8:3],,,,,,5p4[120#4:1],,,,,,,,3h[2:1],,
,,,,,,4V63[120#6:1],,,,,,,,,,
7h[8:3],,,,,,8V62[120#4:1],,,,,,,,4h[2:1],,
,,,,,,5-7[120#12:1]*-3[120#12:1],,,,,,,,,,
1h[8:3],,,,,,4q5[120#4:1],,,,,,,,6h[2:1],,
,,,,,,5V36[120#6:1],,,,,,,,,,
2h[8:3],,,,,,1V37[120#6:1],,,,,,,,8h[2:1],,
,,,,,,1h[8:3],,,,,,8,,,,
2b,8,2,8,2,,7,1,7,1,7,,8,,8,,
2,1,2,1,2,,7,8,7,8,7,,1/8,,,,
7,1,7,8,7,,2,8,2,1,2,,1,,1,,
7,8,6,8,7,,2,1,3,1,2,,4/5,,,,
6,4,6,4,6,,3,5,3,5,3,,4,,4,,
6,5,6,5,6,,3,4,3,4,3,,5/4,,,,
3,5,3,4,3,,6,4,6,5,6,,5,,5,,
3,4,2,4,3,,6,5,7,5,6,,8z4[1:3]/1,,,,
1s5[4:11]/8,,,,,,,,,,,,,,,,
