&title=Immaculate
&artist=ぺのれり
&first=0
&des=純白の世界
&clock_count=4
&wholebpm=200
&des_5=純白の世界
&demo_seek=71.5
&demo_len=20
&lv_5=14
&inote_5=(100){1},{4},,,4xV68V24[16:31],
{1}4s8z4b[8:13],,
{16}6<4[4:3],,,B8,,,C,,,B4,,,4xV68-2[8:5],,,,
E8,,,C,,,E4,,3hx[8:3],,,,{32}D5,D6,D7,D8,D1,D2,D3,D4,
{4}1xV37[2:1],,7V15[2:1],,5V73-1[4:3],,8h[4:1],,
7V14[2:1],,4V27[2:1],,7-5s1[8:5],,3h[4:1],,
2V46[2:1],,6V82[2:1],,2<4[2:1],,4>1b[4:1],,
{1}8x-4[4:5],,
(200){8}16,6,4,5,2,2,35,6,4,7,1>4[8:1],1,{16}8,7,6h[8:1],,5x,,5,,
{8}46,3,5,4,7,7,46,3,5,2,8<5[8:1],8,{16}1,2,3h[8:1],,4x,,4,,
{8}3h[16:3]/5h[8:1],,5,6h[16:3]/4h[8:1],,4,3h[16:3]/8h[8:1],,7,6h[16:3]/1h[8:1],,2,4/3h[16:1],4,2/5h[16:1],2,
{16}7,,4h[16:1]/6h[8:1],,3,4,2,,6,5,7,,1,,2h[8:1]/8h[16:1],,7,8,6,,2,1,3,,5,4,5,4,3b/6b,,,,
7<4[8:1],,8,,17,,2,,3,,34,,25,,6,,5-2[8:1],,6,,57,,7,,1,8,1,,6h[4:1]/2h[8:1],,,,
3>8[8:1],,4,,53,,6,,7,,78,,61,,2,,1-6[8:1],,2,,13,,3,,5,4,5,,2h[4:1]/6h[8:1],,,,
{8}7-5[32:3],8,1,2-8[32:3],3,4,5-3[8:1],6,7,8-6[8:1],1,2,3-7[8:1],4,3x/5<3[8:3],,
8hx[2:1],,,,4x,5,61,2,{16}34,,5,4,6,3,7,2,8,1,8,,2bx/7bx,,,,
{8}8h[4:1]/6h[4:1],,,4h[4:1]/2h[4:1],,,1h[4:1]/8h[4:1],,,,{64}1bs5<5z1[1:2]/7bh[2:5],B1,Cf,B5,{16}A5,,,{4},,,,,,,,,8x,
{8}1h[4:1]/3h[4:1],,,5h[4:1]/7h[4:1],,,8h[4:1]/1h[4:1],,,,{64}8bz4V28V64s8b[1:2]/2bh[2:5],B8,Cf,B4,{16}A4,,,{4},,,,,,,,,1x,
{8}7/8h[8:1],,75,5h[8:1],7,1,7/1h[8:1],,64,4h[8:1],6,8,6/8-2[32:3],,68,,
3/7h[8:1],,31,1h[8:1],3,4,3/4h[4:1],,{16}3,,5,6,71,2,3,4,8-4[8:1],7,6,5,4/8x,,,,
6/5hx[8:1],,,,68,1,2hx[8:1],,6,,4,3,6/2hx[8:1],,,,16,7,8hx[8:1],,1,,6,5,1-5[8:1]/4x-7[8:1],,2,,14,,,,
{8}4/8-4[8:1],,{16}81,2,{8}3<6[8:1],,{16}13,8,{8}7h[4:1],,8,1b/6bx,4bx/5b,3b/8bhx[8:3],,,2x-6b[16:1],,
{16}2b/1bx`B2f,,,,5x/7x,,3x,4x,2x,,8,,1/7<3[4:1],,,,3V17[4:1],,,,7-5[32:3],,,,4,,,3,4x,,15,,
7/8>3[8:1],,,,7,,7,,4h[8:1],,6,,5p1[8:1]/7,,,,5b/6,,,,8x-3[8:1]*-4[8:1],,,,8b,,,,5x,6,7,8,
1/2bh[4:1],,,,4,,6,5,7,,1,,2>6[4:1]/8,,,,6V82[4:1],,,,2-4[32:3],,,,5,,6,,5x/7-3[8:1],,,,
78,,,,1<5[4:1],,1,,5>2b[16:3],,,,8hx[4:1],,,,1x,8,7,6,5x,4,3,2,1x/8x,7,6,5x,4,3,2x,1,
8b/4b-1[8:1],,,,7,,7,,8/6<1[8:1],,,,2,,3,,4V68[4:1]/2x,,,,8V24[4:1],,,,4-8[8:1],,,,6h[4:1],,,,
7x>2[8:1],,,5,,,6,,7<4[8:1],,,8,,,1,,1-5[8:1]/8h[4:1],,,,,,,,4-1[8:1]/6,,,,45,,,,
7bh[4:1]/8b,,,,4,,3h[4:1]/6,5,4x-8[8:1],,,2,4,,1,,7/2h[16:3],,,1,2,,5h[4:1]/3,,4>1[8:1],,,6,4,,7,,
6b/8b-4[8:1],,,,18,,2b-6-2[4:1],,5,,7,,7-3[8:1],,,,7/8b-4[8:1],,,,8/1b-5[8:1],,,,1w5b[8:1]/2b,,,,1b,,,,
{8}7bx-5[32:3],8,7,2-8[32:3],4,2,6-1[8:1],1,6,2>5[8:1],8,2,7-3b[8:1],8,17,,
2-5[8:1],4,2,6<1[8:1],4,6,4-8[8:1],2,4,7v5<8b[16:5],1,7,2h[4:1],,1x,1x,
2>4[32:3],1,8,7>1[32:3],6,5,4-7[32:3],3,2,1-4[32:3],8,7,6-2b[8:1],5,6x/4,3,
4/1-7[32:3],,12,2-6[8:1],,23,3h[4:1],,{16},,6,5,7,,3,4,2,,8,1,2b/7b,,,,
3bhx[8:1]/5bhx[8:1],,,6bhx[8:1]/8bhx[8:1],,,1bhx[8:1]/2bhx[8:1],,,,7bx,8bx,6bx/1bx,,6bhx[8:1]/1bhx[8:1],,,,2bhx[8:1]/4bhx[8:1],,,3bhx[8:1]/5bhx[8:1],,,4bhx[8:1]/6bhx[8:1],,,5bhx[8:1]/7bhx[8:1],,,1bx/8bx,,
2-5[32:1]/7,,,8-4[32:1],,,6hx[4:1],,,,7x,5x,7x,,48,,2,7,1,7,8,6,1,6,2,3,4,5,61,7,8,1,
2h[8:1]/6,,,5,4,,8h[8:1]/3,,,5,6,,7/1h[8:1],,8,,27,,1,8,2,7,3,6,4,5,4,5,3b/6b,,,,
4h[8:1]/7,,6,5,6,5,7h[8:1],,2,1,2,1,3h[8:1],,7,8,6,8,5h[8:1],,3,4,2,4,1,5,1,6,1-5b[8:1],7,1,8,
(100){1}1bV35V71[1:1]`Cf,{2}1xz5b[2:1],5s1b[2:1],
{8}7h[2:1],,,8>6[8:5],,,,,6q1[16:7],,,,8h[4:1],,{32}D3,D4,D5,D6,D7,D8,D1,D2,
{16}6x,6,4,2,5,4,5,4,6,3,5,4h[16:1],{32}B5,B6,{16}E7,3,3,
4,5,4,2,4,6,5,6,4,3,7,6h[16:1],{32}B4,B3,{16}E3,5,5,
4-8b[8:7]/6,3,7,1,8,2,6,1,7,2,8,3,6,5,4,3,
{64}A2,D2,A1,,{16},{8},{4},,,
(204){1}1b-4-8-5>1[4:11]*-6-2-5<1[4:11]/Cf,,,{2},2h[4:1]/8h[4:1],
7h[2:1]/4V68V24[1:1],,4z8[2:1]*s8[2:1],,{8}7h[2:1]/1,,,5<4[8:7],5,,,,,,,,5h[2:1],,,,
6b,,6,5,6/4h[4:1],,6,1,5/1hx[8:1],,5/2h[8:1],,5/3h[8:1],,5/2h[8:1],,
{16}4/7x,,,5,4,,6,,47,,,8,4,,1<5[4:1],,1x/3,,,,3,,,,3/4-8[8:1],,,,34,,,,
7/1hx[4:1],,,,7,,8,,71,,,2,7,,3,,3/6x,,,5,3,,6,,38,,,7,3,,6,,
{8}5-2[8:1]*-1[8:1]/3,5,5b,,7-4[8:1]/8-4[8:1],78,7b/8b-2[32:3]*-3b[8:1],,8b-4b[8:1],,8b-6[32:3]*-5b[8:1],,8b,,{16}4x,3,2,1,
8bh[4:1]/5,,6,,5,,62,3,4qq8[8:3]/5,,6,,5,,6,,5,,6,,5/7h[8:1],,6,,51,,6,2,5,,3>8[8:1]/6,,
53,,6,,5,,6/7xV13[4:1],,5/7x,,6,,5,,6,,5/4-2[32:3],,6,,54,,6,,5/1-5[8:1],,6,,5x/1,6x,7x,8x,
1bhx[4:1]/4,,3,,4,,37,6,5pp1[8:3]/4,,3,,4,,3,,4,,3,,4/2h[8:1],,3,,4/8h[8:1],,3,,4/6<1[16:3],,3,,
4/6x,,3,,4,,3/2xV86[4:1],,4/2x,,3,,4-8[8:1],,3,,4b>1[8:1]*<7[8:1],,,,4bw8[8:1],,,,4b,,,,2b-5b[8:1]/6b-1b[8:1],,,,
{8}2b/6b,,38,7h[8:1],1-5[8:1],8,1/7h[4:1],,6,6h[8:1],5,5h[8:1],{16}3,6,4,5,1h[32:7],,,,
{32}2bx/6bx,35,4h[16:3],,,,,,,,,,8b/2b,73,64,5h[32:5],,,,,,,,,8b,17,26,5z1>4q8[32:29]/3s7<4p8b[32:29],4,,,,{1},A8f/D1/D8,
{32}7hx[2:1]/4x,5x,{16}6hx[48:67],{8},{4},,,2h[24:11],,{24}5/1h[1:0],4/8h[1:0],3/7h[1:0],2/6h[1:0],1/5h[1:0],8/4h[1:0],7bx/3bhx[1:0],,,,,,
{8}3b-8[8:1]/8b,6,3V52[32:7],5,3,8x-4[8:1],7,8V25[4:1]/2x,1,5x,6,7h[8:1],{16}6x,7,8,1,2h[4:1]/5,,5,,
{8}6-1[8:1],4,6V47[32:7],2,6,1x-5[8:1],2,1V74[4:1]/7x,8,4x,3,2h[8:1],{16}3x,2,1,8,7h[4:1]/4,,3,,
{8}2-5[8:1],8,2V83[32:7],6,2,5x-1[8:1],6,5V38[4:1]/3x,4,8x,7,6h[8:1],{16}7x,6,5,4,3h[4:1]/8,,7,,
{8}6<1[8:1],2,6-4[32:3],4-7[8:1],6,2x-6b[8:1],3,8x-3b[8:1]/2,7,5/8x,4x>4[4:1],4x,{32}D4,D3,D2,D1,D8,D7,D6,D5,{4}A4f/E4/D4/A3,
{16}1bx/8bx,2,3,4,8b,7,6,5,3b,2,1,8,4b,5,6,7,8x/1b,2,3,4,5x/8b,1,2,3,4x/7b,8,1,2,3hx[4:1]/5b,,,,
{16}8bx,7,6,5,1b,2,3,4,6b,7,8,1,5b,4,3,2,1x/8b,7,6,5,4x/1b,8,7,6,5x/2b,1,8,7,6hx[4:1]/4b-1[8:1],,,,
{8}4,7-4[8:1],8,17,2-7[8:1],3,24,5-2[8:1],6,57,8,1,{16}2,4,3,4,2b-6[8:1]/5b,,,,
{8}2/8-4[8:1],,58,3-8[8:1],,35,7<4[8:1],,78,3-7[8:1],,34,5w1b[8:1],,5,,
{16}3hx[8:1],,4,5,1,2,5,6,2,3,6,7,3,4,7,8,5x,1,4,8,3,7,2,6,1b/5bx,,1b/5bx,,8bv3b[8:1]/4bv7b[8:1],,8b/4b,,,,,,,,26,15,{4}8bs4z8V64V28[4:13]/4b,,,8xz4s8>8b[2:5],{1},,,,,E
