&title=CRIT TANK
&artist=Shadow_bling
&first=0.03
&des=Dasongbing
&lv_5=13+
&des_5=Dasongbing
&inote_5=
(165){4},{8},,,,,,,,,,,,,,6,
6,6,{16}3,5,4,6,{8}5,4,4,
{16}7,6,{8}5,{16}2,3,{8}4,8,7,6,5,
3,3,3,{16}6,4,5,3,{8}4,2,2,
{16}7,6,{8}5,{16}2,3,{8}4,8,7,3,4,
6,6,6,{16}3,5,4,6,{8}5,7,7,
{16}2,3,{8}4,{16}7,6,{8}5,{16}4,5,3,4,{8}2,2,
7,7,6,6,{16}6,3,5,4,{8}6,5,
5,{16}8,7,{8}6,4,{16}1,8,7,6,{4}5,
8/1,{8}2/8<6[16:1],1,{4}8/2,{8}7/1>3[16:1],8,
{4}7/1,{8}2/8<6[16:1],1,{4}8/2,{8}1/7<5[16:1],8,
{4}7/1,{8}5/3>1[16:1],4,{4}5/3,{8}4/6<8[16:1],5,
{4}6/4,{8}3/5<7[16:1],4,{4}5/3,{8}5/3,4,
5,6,7,8,4,3,2,1,
5/4,6,7,8,4/5,3,2,1,
{16}5,4,5,4,5,4,5,4,6,3,6,3,6,3,6,3,
{2}6b,{16}5xh[4:1],,,,,5x,5x,5x,
{8}5x/3xh[8:1],5,6/8h[8:1],6,5/3h[8:1],5,6/8h[8:1],6,
5/3h[8:1],5,6/8h[8:1],6,5/3h[8:1],5,6,{16}5,6,
4,5,{8}3,3/1h[8:1],3,4/6h[8:1],4,3/1h[8:1],3,
4/6h[8:1],4,3/1h[8:1],3,4/6h[8:1],4,5/4,5/4,
5/4>1[8:1],5,{4}5/4,{8}6/5>2[8:1],6,{4}6/5,
{8}8/7<4[8:1],8,{4}8/7,{8}8/1>4[8:1],8,{4}8/1,
{8}5/6<1[8:1],5,{4}5/6,{8}3/4<7[8:1],3,{4}3/4,
{2}3h[8:1],{8}6/5,6/5,4/3,3/4,
{4}5<7[8:1],{8}3/5,2,{4}5/3>1[8:1],{8}3/5,6,
{4}3/5<7[8:1],{8}5/3,2,3/5,4/6,{4}5/7,
4>2[8:1],{8}4/6,7,{4}4/6<8[8:1],{8}4/6,3,
{4}6/4>2[8:1],{8}4/6,7,6,5,{4}5,
5/4,{8}6/5,5/4,{4}4/3,{8}5/4,4/3,
{4}3/2,{8}7/6,5/6,{4}5/4,{8}5/6,5/4,
4/3,3,{16}5,4,5,4,5,4,5,4,5,4,5,4,
{4}5,{8}5/4,{32}E4/E6,B3/B6,B2/B7,E8/E2,{4}1bx-4b[16:1]/8bx-5b[16:1],8/1,
5h[8:1],{8}6/5,5/4,4/3,3/2,7/6,5/6,
5/4,4/3,6/5,5/4,4/3,3/2,5/4,5/4,
{4}8h[8:1],{8}2/1,1/8,8/7,7/6,2/3,2/1,
1/8,8/7,2/1,1/8,8/7,7/6,4,4,
{4}5<7[8:1],{8}5/3,2,{4}5/3>1[8:1],{8}3/5,6,
{4}3/5<7[8:1],{8}5/3,2,3/5,6,5,4,
{4}3-5[8:1],1-3[8:1],8h[8:1],{8}8,8,
8/1,2/7,6/3,5/4,8/1,7/2,6/3,5/4,
{4}6bh[8:1],{8}3/4,4/5,5/6,6/7,2/3,4/3,
4/5,5/6,3/4,4/5,5/6,6/7,4/5,4/5,
{4}1h[8:1],{8}7/8,8/1,1/2,2/3,7/6,7/8,
8/1,1/2,7/8,8/1,1/2,5,5,5,
{32}8/1x,2x,{16}3x,{32},,8x/1,7x,{8}6x,5,{4}5,{8}4,4,
{32}1/8x,7x,{16}6x,{32},,8/1x,2x,{8}3x,5,{4}5,5,
{1}5<4[2:1],
{4}8-6[8:1]*-2[8:1],8-5[8:1]*-3[8:1],{2}8-4[8:1]*-4[8:1],
{1}8b-2-4-6v3[4:5],
,1-7-5-3v6[4:5],
{4},,,7h[4:1],
{2}5h[4:1],5-2-7-4[8:9],
{8},,,,,,,,,,,1-6-3-8[8:7],
,,,,,,,,,,,,{4}5h[8:1]/6bh[8:1],
5h[8:1]/4h[8:1],3h[8:1]/4h[8:1],{8}5,5,
5h[8:1],1,3h[8:1],8,5h[8:1],1,3h[8:1],8,
{4}4h[8:1]/3h[8:1],5h[8:1]/4h[8:1],6h[8:1]/5h[8:1],{8}4,5,
4h[8:1],8,{4}8/4h[8:1],{8}6,4,5,3,
{4}6h[8:1]/5h[8:1],5h[8:1]/4h[8:1],4h[8:1]/3h[8:1],{8}5/4,5/4,
{4}4h[8:1]/3h[8:1],5h[8:1]/4h[8:1],6h[8:1]/5h[8:1],{8}5/4,5/4,
{4}1h[8:7]/6h[8:1],5h[8:1],6h[8:1],5h[8:1],
4>1[8:1],4<7[8:1],4>1[8:1],4b,
{8}7,7,{16}2,8,1,7,{8}8,1,1,{16}6,7,
{8}8,{16}3,2,{8}1,5,6,7,8,2,
2,2,{16}7,1,8,2,{8}1,3,3,{16}6,7,
{8}8,{16}3,2,{8}1,5,6,2,1,6,
6,6,{16}3,5,4,6,{8}5,7,7,{16}2,3,
{8}4,{16}7,6,{8}5,{16}4,6,3,5,{8}2,2,7,
7,6,6,{16}5,3,6,4,{8}5,6,7,
{4}8-6[8:1],8-5[8:1],8-4[8:1],8-3[8:1],
,3,{16}4,E8,E7,E6,4,E8,E7,E6,
{4}4,3,{16}4,E8,E7,E6,4,E8,E7,E6,
{4}4,4,{16}3,E8,E7,E6,3,E8,E7,E6,
{4}3,4,{16}4,E8,E7,E6,4,E8,E7,E6,
{8}4,4,5,5,3,3,6,6,
2,2,7,7,1,1,8,8,
{16}1,8,2,7,3,6,4,5,4,5,3,6,2,7,1,8,
{4}1-3[8:1]*-7[8:1],1-4[8:1]*-6[8:1],{2}1-5[8:1]*-5[8:1],
{16}7,8,1,2,3,4,5,6,7,8,1,2,3,4,5,6,
7,8,1,2,3,4,5,6,{2}7,
{32}1,2x,3x,4x,,,,,1,8x,7x,6x,,,,,1,2x,3x,4x,,,,,1,8x,7x,6x,,,,,1/8x,
2x,3x,4x,,,,,{4}6,5,{8}2>4[8:1]/6<8[8:1],5,
{4}6b>4[8:1]/2b<8[8:1],2>4[8:1]/6<8[8:1],6/2,{8}7>1[8:1]/3<5[8:1],6,
{4}3>1[8:1]/7<5[8:1],7>1[8:1]/3<5[8:1],7/3,{8}2>4[8:1]/6<8[8:1],5,
{4}6>4[8:1]/2<8[8:1],2>4[8:1]/6<8[8:1],6/2,{8}3<5[8:1]/7>1[8:1],2,
{4}3>1[8:1]/7<5[8:1],7>1[8:1]/3<5[8:1],7/3,{8}2>4[8:1]/6<8[8:1],1,
{4}6>4[8:1]/2<8[8:1],2>4[8:1]/6<8[8:1],6/2,{8}7>1[8:1]/3<5[8:1],2,
{4}3>1[8:1]/7<5[8:1],7>1[8:1]/3<5[8:1],7/3,{8}2>4[8:1]/6<8[8:1],5,
{4}6>4[8:1]/2<8[8:1],2>4[8:1]/6<8[8:1],6/2,{8}7>1[8:1]/3<5[8:1],6,
{4}3>1[8:1]/7<5[8:1],7>1[8:1]/3<5[8:1],7/3,{8}3/4,4/5,
{4}6bh[8:1]/5h[8:1],5h[8:1]/4h[8:1],4h[8:1]/3h[8:1],{8}5,4,
4h[8:1],8,6h[8:1],1,4h[8:1],8,6h[8:1],1,
{4}5h[8:1]/6h[8:1],4h[8:1]/5h[8:1],3h[8:1]/4h[8:1],{8}5,4,
5h[8:1],1,{4}1/5h[8:1],{8}3,5,4,6,
{4}3h[8:1]/4h[8:1],4h[8:1]/5h[8:1],5h[8:1]/6h[8:1],{8}4/5,4/5,
{4}5h[8:1]/6h[8:1],4h[8:1]/5h[8:1],3h[8:1]/4h[8:1],{8}4/5,4/5,
{4}8h[8:7]/3h[8:1],4h[8:1],3h[8:1],{16}4h[8:1],,,5,
{4}4,1h[8:1]/8h[8:1],7h[8:1]/2h[8:1],{8}3/6h[8:1],4,
{4}2/7<5[8:1],{8}2>4[8:1],1,7<5[8:1],8,2>4[8:1],1,
{4}7<5[8:1],{8}2>4[8:1],1,7<5[8:1],8,2>4[8:1],1,
{4}7<5[8:1],{8}2>4[8:1],1,7<5[8:1],8,2>4[8:1],1,
{4}7<5[8:1],{8}2>4[8:1],1,7<5[8:1],8,2>4[8:1],1,
{4}6<8[16:3],{8}3>1[8:1],4,6<8[8:1],5,3>1[8:1],4,
{4}6<8[8:1],{8}3>1[8:1],4,6<8[8:1],5,,,{4}3,
5h[8:1],4h[8:1],3,
2h[8:1]/5h[8:1],3h[8:1]/5h[8:1],4h[8:1]/6h[8:1],5h[8:1]/7h[8:1],
5/6,{8}3/2,4/3,5/4,6/5,3/4,5/4,
{4}5/6,{8}3/2,4/3,5/4,5/6,3/4,5/4,
{4}5/6,{8}8/7,1/8,1/2,2/3,8/1,1/2,
{4}3/2,{8}1/2,1/8,1/8,7/8,{16}1x,1x,{8}1x,
{4}1bx>5v3[8:3],,,8,
8<4v6[8:3],,,4,
{16}7,5,6,4,5,3,4,2,7x,5x,6x,4x,5x,3x,4x,2x,
{4}E1/B8/B1,E7/B7/B6,B5/B4/E5,Cf/B2/B3/E3,
E
