&title=ローリンガール[SD]
&artist=wowaka
&first=0
&lv_6=13+
&des_6=Observ.roLlin
&inote_6=
(195){4},,,,8>6[2:1],
8,{2}6p8[2:1],
{4},,,,8<2[2:1],
8,{2}2q8[2:1],
{4},,,,1>7[2:1],
1,{2}7p1[2:1],
{4},,,,1<3[2:1],
1,{2}3q1[2:1],
{4},,,{32}7p2[8:1],6,5,4,3,2,,,{4}7b/2b,
7h[2:1],{8}5,4,3,2h[4:1],
,5,{4}6,{8}7/8,1/6,2/5,{16}4,3,
{4}4h[4:1],2h[2:1],{8}8,7,6,5h[4:1],
,3,{4}1,{8}2q7[4:1]/7<2[4:1],2/7,{4}2/7,
,2h[2:1],{8}4,5,6,7h[4:1],
,4,{4}3,{8}2/1,8/3,7/4,{16}5,6,
{4}5h[4:1],7h[2:1],{8}1,2,3,4h[4:1],
,6,{4}8,{8}7/2,8,{4}8,
5-1[8:1],5<5[2:1],{8}2,3,4,5h[4:1],
,6,{4}5h[2:1],{8}4,4,4,{16}4,3,
{4}4h[4:1],2,{8}3h[8:3],5,7,8h[4:1],
,3,{4}1h[2:1],{8}6,6,{4}6,
4-8[8:1],4>4[2:1],{8}7,6,5,4h[4:1],
,3,{4}4h[2:1],{8}5,5,5,{16}5,6,
{4}5h[4:1],7,{8}6h[8:3],4,2,1h[4:1],
,6,{4}8h[2:1],{8}3-6[8:1],3,{4}3b,
{2}5h[2:3],4h[4:1],
{4}2h[2:1],{8},,,,8v3[4:1],8v5[4:1],
,,,,2-6[4:3],3/1,,2h[8:5],
,,,,,,{4}5,
{2}5h[2:3],4h[4:1],
{4}2h[2:1],{8},,,,7/8-5[2:1],8/7h[8:5],
,,,,,,3/4-1[2:1],4/3h[8:5],
,,,,,,,,{4}3/6,
{8}6h[8:1],4,,4h[8:1],{4}7,
2/6,{8}2,6,3,6,{4}2,
6/2,{8}3h[8:1],5,,5h[8:1],{4}2,
{8}5,4,5,4,{4}5<1[2:1],7>1[4:1],
1>5[2:1],3<5[4:1],{2}5<1[2:1]*q1[2:1],
{4},,1>5[2:1],3<5[4:1],
5<1[2:1],7>1[4:1],{2}1>5[2:1]*q5[2:1],
,6h[2:1],
{4}3,2/7,{8}7,6,2,3,
,8,{4}4,{16}8,7,6,5,{4}4,
7h[4:1],2,{8}6,7,3,2,
,8,{4}4,{8}8/4,1/5,{4}7/3h[4:1],
6,7/2,{8}2,3,7,6,
,1,{4}5,{16}1,2,3,4,{4}5,
2h[4:1],7,{8}3,2,6,7,
,1,{4}5,{8}1/5,8/4,{4}6/2,
1h[2:3]/8-5[8:1],8,8-4[8:1],8,
8p5[4:1],,,2>7[4:1],
{2}7p2[4:1],{8}8-4[2:1],1,,8h[8:3],
,,,,,,{4}1,
8h[2:3]/1-4[8:1],1,1-5[8:1],1,
1q4[4:1],,,4h[2:1],
{8},,,,,6-3[8:1],{4}3q6[4:1],
,,{2}6/3,
{4}5h[4:1],4h[2:1],{8}3h[4:1],,,4h[8:3],
,,{4}5h[2:1],{2}6h[4:1],
{8}5h[8:1],4h[8:1],6h[8:1],4h[8:1],5h[8:1],3h[8:1],6h[8:1],1h[8:1],
8h[8:1],4h[8:1],1h[8:1],3h[8:3],{2}2h[4:1],
{4}3<7[2:1],5<1[2:1],7>3[2:1],1>5[2:1],
3<7[2:1],5<1[2:1],7>3[2:1],1>5[2:1],
3<7[2:1],5<1[2:1],{2}7>3[2:1],
{32},,,,,,,,,,,,,,,,4,5,6,7,8,1,2,3,4,5,6,7,8,1,2,3,
{4}4/8h[4:3],4-1[8:1],{8}4,,,5/1h[8:7],
,,{4}5-8[8:1],{2}5,
{8}5,5h[8:1],2,2h[8:1],6,6h[8:1],3,3h[8:1],
7,7h[8:1],{4}4,{8}4/8,3/1,{4}8/4,
3-6[4:1]/6-3[4:1],6/3,{8},,,6-3[8:3]/3-6[8:3],
,,,,,,,1,
1h[8:1],5,5h[8:1],1,5,1,6,2,
7,3,8>4[8:1],4<8[8:1],{2}8,
{4}5/4h[1:1],5-8[8:1],{2}5,
{8}7-3[8:1],2-6[8:1],7,2,7,,,8h[4:1],
,1,8-4[8:1],1-5[8:1],8<5[8:1],1>4[8:1],8,1,
,,{4}1h[4:1],8h[4:1],7h[4:1],
6>2[2:1],4>8[2:1],2<6[2:1],8<4[2:1],
6>2[2:1],4>8[2:1],2<6[2:1],8<4[2:1],
6>2[2:1],4>8[2:1],{2}2<6[2:1],
{32},,,,,,,,,,,,,,,,5,4,3,2,1,8,7,6,5,4,3,2,1,8,7,6,
{4}5/1h[4:3],5-8[8:1],{8}5,,,4/8h[8:7],
,,{4}4-1[8:1],{2}4,
{8}4,4h[8:1],7,7h[8:1],3,3h[8:1],6,6h[8:1],
2,2h[8:1],{4}5,{8}5/1,6/8,{4}1/5,
3-6[4:1]/6>3[4:1],6/3,{8},,,3<6[8:3]/6-3[8:3],
,,,,,,,,8,
8h[8:1],4,4h[8:1],8,4,8,3,
7,2,6,1<5[8:1],5>1[8:1],1,,,{4}5/4h[4:3],
5-8[8:1],{2}5,
{8}4v7[8:1],4v1[8:1],,,,,,8h[4:1],
,1,2/1,3,4/5,6,7/8,6,
5/2,3,4/7,8,{4}1/5,2/6,
5<8[4:1],8-4[4:1],4>1[4:1],1-5[4:1],
5<8[4:1],8-4[4:1],4>1[4:1],1q4[2:1],
{8},,,,,2h[8:5],{4}7h[2:1],
{8},,,,7/2,2b/7b,
E
