&title=八月のレイニー
&artist=はるまきごはん
&first=5.24
&des=M1zukiri
&lv_5=13
&inote_1=
&inote_5=(185)
{8}4,5,3/6,,
{8}3,4,3,5,4,5,3,4,2,2,4-8[8:1],4,2>5[8:1],,2,,
{8}7,5,6,4,5,4,6,5,7,7,5-1[8:1],5,7<4[8:1],,7,,
{8}2,4,3,5,4,5,3,4,2,2,4<7[8:1],4,1-5[8:1],,1,,
{8}8,7,6,4,3,2,5-1[8:1]/1,,5/2-4[12:1],,8/2-6[8:1],,7-5[8:1]/2,,8/7-3[8:1],,7b/1h[4:2],,,,
{8},,,,
{8}3,,5,,3,4,4/3,,3/5,,6,,7,5,5/6,,
4/6,,3,,3,4,2/4,,
{8}6h[4:1]/1,,5,,4,5,3,,2h[4:1]/4,,8,,7,5,6,,
4h[4:1]/7,,5,,4,5,3,,2/5h[4:1],,8,,7h[4:2]/6,5,4,3,
{8}2-4[8:1],,6h[4:2],,5-1[8:1],,,,2h[4:2]/8-6[8:1]
,,,,5-7[8:1]*-3[8:1],,,,
2/8,,7,5,6,4,5pp1[8:5],3h[8:7],
,,,,
,,,,
{8}2-4[12:1],,6h[8:1],,5-1[8:1],,7h[8:1],,
{8}8-6[12:1],,2h[8:1],,5-1[8:1],,4>5[4:4],,
{8}8,,7,,6,,5w1[4:2],,
{8},,,,{16},,,,
{4},
{8}4,5,4-2[8:1],,
7-5[8:1],,1,,
2,4,3<6[8:1],,
7<4[8:1],,8,,
{8}1,2,3-1[8:1],,
4-6[8:1],,2,
2V48[8:2],,8-5[8:2]*-3[8:2],,,
,,,4,
{8}7,5,6,8,
7-3[8:1],,7,1-5[8:1],
,1<6[8:3],,,
6>3[8:3],,2,,
{8}1h[4:1],,8,5,
6h[4:1],,2,4,
3V51[4:1],,1V35[8:3]*V75[8:3],,
,,,,
{4}4h[4:7]/6h[4:3],,,,5-1[4:2],,,,
{4}4qq4[4:4]*pp5[4:4],,,,,,,,
{8}3h[4:1]/4,,5,,4,4,3/5,,{8}6h[4:1]/5,,4,,5,5,6/4,,
{8}5/3,3,3/2,3,3/8,3,3/5,3,
{16}3,4,2,5,1,6,8,7,
{8}1b,1b-5[4:1],,,
{4}6-1[8:1],4-8[8:1],7-4[8:1],7,1-4[8:1],7-3[8:1],5-2[8:1],5,
{4}8-6[8:1]/1-5[8:1],8/1,8-4[8:1]/1-3[8:1],1/8,1-5[8:1]/8-6[8:1],8-4[8:1]/1-3[8:1],8/1,,
{8}2-7[8:1],,3,,4-1[8:1]
,,5,,6pp1[8:5],,
{8}2,2,2>5[8:1],,{4}2,
{8}8-4[8:1],,7,,
6-2[8:1],,5,,
4qq1[8:5],,8,8,
8<5[8:1],,8,,
{4}2-5[12:1],6-1[8:1],4-8[12:1],8,7-4[8:1],3-8[8:1],5-1[12:1],1,3-5[12:1],1-7[12:1]/3,1/2-6[8:1],2/5-7[12:1],5/4-8[8:1],8w4[8:1],,,
{8}2-5[12:1],,7-4[12:1]/2,,2-6[12:1]/7,,7-3[12:1]/2,,
{8}7/1h[4:1],,4h[2:1],,
{24}5,6,7,8,1,2,
{32}3b-7[8:1],,,,,,,,
{4}3bV17[4:5]*V15[4:5],,,,
{4},,,,
{4}5pp8[4:5]/4h[4:6],,,,,,,,7qq4[4:5]/3h[4:6],,,,,,,,
{4}4qq1[4:5]/5h[4:6],,,,,,,,2qq5[8:8]*q5[8:8],,,,,,
{8}4,5,3/6,,
{4}3V15[4:6]/5,5,5,5,6,6,6,6,4/7V51[4:6],4,4,4,3,3,3,3,
{4}2-4[12:1]*-6[12:1],2,
{8}5-7[12:1]*-1[12:1],,5,,
{4}8v3[8:1]*v5[8:1],8,
{8}4w8[8:1],,4,,
{16}2h[4:1],,,,4h[4:1],,,,5,6,7,8,1,2,
{8}3-7[8:1],,{16}5b,5b-1[6:1],,,,,{4},,
{4}2-6[8:1],7-4[12:1],5w1[8:1],5,7-3[8:1],4-8[12:1],1w5[8:1],1,
{4}2-6[12:1]/8-6[12:1],2/8,8-4[12:1]/2-4[12:1],8/2,
{4}2-6[12:1]/8-6[12:1],2-4[12:1]/8-4[12:1],2/8,,3-7[8:1],
{4}2,1-5[8:1],8,7qq4[8:5],{8}3,3,{4}3>8[8:1],3,
{4}5-1[8:1],6,7-3[8:1],8,1pp4[8:5],{8}5,5,5<8[8:1],,
{8}5,,
{4}2-5[8:1],6-2[8:1],4w8[8:1],4,2-7[8:1],6-2[8:1],1w5[8:1],1,
{4}3-5[12:1],3/6-8[12:1],2-4[12:1]/6,1-5[8:1]/2,8-6[12:1]/1,8/4w8[8:1],4,,
{4}1>5[4:1],5<1[4:1],1>5[4:1],5V71[4:1],1V35[4:1],5q1[4:1],1q5[4:1],5w1[4:5],,,,,,,
{16}2/8,3/7,4/6-8[4:3],5b-1[2:15],,,,,
{8},,,,,,,,4,,6,,3,4,2-4[4:3],,,,,,,,,,5,,4,,5,5,4,4,
{8}6,,4,,5,5,4,4,,,,,,,
{8}6,,4,,5,5-1[8:1],,,,
