&title=Inverted World
&artist=ARForest
&first=0
&des=
&des_5=uapy
&lv_5=14
&inote_5=(180){4},,,,,,,,{1}4>5<4[8:27],
,,,5qq3qq1qq7qq5[4:13],
,,,{8}3h[2:3],
{4},{8}B6,{4},B4,
{8},E6/B5,{4},5,5,
{8}6h[2:3],{4},{8}B3,{4},B5,
{8},B4/E4,{4},4,4,
{8}4>1[8:7],{4},{8}B5,{4},B6,
{8},B8/B7,{4},8,8,
{8}8<5[4:3],{4},{8}B1,{4},E3/B3,
{8},{16}E4,E5,E6,E7,E8,E1,E2,E3,E4,E5,E6,E7,E8,E1,
{2}E2/Cf,{8}7,7-5[8:1],5v8[16:3],3h[4:1],
,,,3,7,7-5[8:1],5v8[16:3],3h[4:1],
,,,3,7,7-5[8:1],5-1[16:3],3h[4:1],
,,,3,4,5,6,7,
{2}8h[4:1],{8}2,2-4[8:1],4v1[16:3],6h[4:1],
,,,6,2,2-4[8:1],4v1[16:3],6h[4:1],
,,,6,2,2-4[8:1],4-8[16:3],5,
6,6,7,7,1,1,{16}8,7,6,5,
{2}4b/Cf,{8}2qq5[2:1],2,5,5,
,6,,6,2qq5[2:1],2,5,5,
,6,,6,2qq1-4[2:1],2,5,5,
,6,,6,4,4,5/3,5/3,
{2}2h[4:1],{8}7pp4[2:1],7,4,4,
,3,,3,7,7,4,3,
7,6,5,2,3,4,7-3[8:1],7,
2-6[8:1],2,5-1[8:1],5,3,3,{16}8-4b[8:1],7,6,5,
{32}8b,Cf,{16},,,,,,,{8}3h[4:1],E7,B5,2h[4:1],
E7,B5,1h[4:1],E7,B5,2h[4:1],E7,E6,
{4}B4/E5,{8}2,2,6h[4:1],E3,B4,7h[4:1],
E3,B4,8h[4:1],E3,B4,7h[4:1],E3,E4,
{4}B5/E5,{8}7,7,3h[4:1],{16}B8,B7,{8}B6,2h[4:1],
{16}B7,B6,{8}B5,1h[4:1],{16}B6,B5,{8}B4,2h[4:1],{16}E1,E8,E7,E6,
{4}E5/C,{8}2,2,6h[4:1],{16}B1,B2,{8}B3,7h[4:1],
{16}B2,B3,{8}B4,8h[4:1],{16}B3,B4,{8}B5,7h[4:1],{16}E1,E2,E3,E4,
{4}E5/C,{8}7,7,3h[4:1],{16}8,7,{8}6,2h[4:1],
{16}7,6,{8}5,1h[4:1],{16}6,5,{8}4,2h[4:1],{16}8,7,6,5,
{4}4/1,{8}2,2,6h[4:1],{16}1,2,{8}3,7h[4:1],
{16}2,3,{8}4,8h[4:1],{16}3,4,{8}5,7h[4:1],{16}1,2,3,4,
{4}5/8,{8}7,7,2h[8:1],{16}5,3,{8}4,7h[8:1],
{16}4,6,{8}5,2h[8:1],{16}5,3,{8}4,7h[8:1],{16}2,6,3,5,
{4}4,{8}2,2,7h[8:1],{16}4,5,{8}3,2h[8:1],
{16}5,4,{8}6,7h[8:1],{16}4,5,{8}3,3,4/6,4/6,
{1}Cf/8b-5-2-7-4-1-6-3-8[4:13],
,,,8h[4:3]/1>4[8:3],
4h[4:3]/6<1[8:3],
1h[4:3]/2>5[8:3],
5h[4:3]/7qq2[2:1],
{4}3/Cf,3,4,4,
5/3,5/3,6,6,
7/5,7/5,6,6,
5/3,3/5,2,2,
{8}8/1,8,7,7,6/4,4,3,3,
2/5,5,6,6,7/3,3,2,2,
{16}8,1,8,1,7,2,6,3,5,4,5,4,6,3,6,3,
6,5,4,3,2,1,8,7,{2}6/5w1b[8:1],
{16}7bh[16:3],{8},{16}1h[16:3],{8},5h[8:1],{16}2,4,2,4,3,5,3,5,
4h[16:3],{8},{16}6h[16:3],{8},2h[8:1],{16}5,4,3,2,1,8,7,6,
5/2h[16:3],{8},{16}8h[16:3],{8},4h[8:1],{16}7,5,7,5,6,4,6,4,
5h[16:3],{8},{16}1h[16:3],{8},4h[8:1],{16}1,2,3,4,5,6,7,8,
1bh[16:3],{8},{16}7h[16:3],{8},5h[8:1],{16}8,5,7,4,6,3,5,2,
4h[16:3],{8},{16}8h[16:3],{8},5h[8:1],{16}1,4,2,5,3,6,4,7,
{8}5h[8:1],{16}8,4h[8:1],,7,{8}3h[8:1],{16}7,6,5,4,1,2,3,4,
5/6,7,8,1,5,4,3,2,1/8,7,6,5,8,1,2,3,
{8}4b/8bh[8:1],{16}2,7h[8:1],,1,{8}6h[8:1],{16}1,2,3,4,6,7,8,1,
{8}5h[8:1],{16}7,4h[8:1],,6,{8}3h[8:1],{16}6,5,4,3,2,1,8,7,
{8}6/1h[8:1],{16}4,2h[8:1],,5,{8}3h[8:1],{16}5,6,7,8,2,3,4,5,
{8}7h[8:1],{16}5,8h[8:1],,4,{8}1h[8:1],{16}4,5,6,7,8,1,2,3,
4,6,4,6,3,5,3,5,2,3,4,5,7,6,5,4,
1,4,1,4,2,5,2,5,1,2,3,4,8,7,6,5,
1b,4,2,4,{8}3,{16}8b,5,7,5,{8}6,{16}1b,8,2,7,
2b,3,4,5,6/2,7,8,1,2b/7b,8,1,2,3/7-4b[8:1]*-3b[8:1],4,5,6,
{32}7b>7>8>1>2>3<4<5<6<7[2:7],Cf,{1},,,{4},,,{16},,,{1}8h[2:3]/1v4V25[8:11],
,4h[1:1]/5<8[8:3],
8-2-6-4[8:5],
{8}1h[4:1],{4},{16}3,4,{8}3,5,6,7<5[32:3],
,,,{16}3,4,{8}3,5,6,7<5[32:3],
,,,{16}3,4,{8}3,5,6,7-4[8:1],
,2-5[8:1],2,6v1[8:1],6,4>1[8:1],4,8,
7h[4:1],{4},{16}6,5,{8}6,4,3,2>4[32:3],
,,,{16}6,5,{8}6,4,3,2>4[32:3],
,,,{16}6,5,6,4,6,4,5,3,5,3,
E6,B6,B7,E8,E3,B3,B4,E5,E8,E1,E2,E3,E4,E5,E6,E7,
{1}E8/C,
E
