&title=こどもかくしのアンダーランド
&artist=iru feat. 桃寝ちのい
&first=-0.305
&des=SY_srtsalt
&des_5=SY_srtsalt
&lv_5=13+
&inote_5=(183){4},{1},,{4},,{8},{16}3,
4,
{4}2b-5[8:1],{8}6,6,{4}7-4[8:1],{8}3,3,
{4}2v5[8:1],{8}6,7,{4}8V26[4:1],{8}3,4,
{4}5,{8}8h[16:1]/1h[16:1],8h[16:1]/1h[16:1],7h[16:1]/2h[16:1],6h[16:1]/3h[16:1],{12}5x/4x,6x/3x,7x/2x,
{4}1x/8x<1[2:1],Cf,{8},,,,1/8,
{16}3,4,{8}3,{16}6,5,{8}6,{16}3,4,{8}2,{16}6,5,
{8}7,{16}2,1,{8}3,{16}7,8,{8}6-1[8:1],{16}4,4,{8}6,3,
2/7,{16}6,5,{8}6,{16}3,4,{8}3,{16}7,8,{8}7,{16}2,1,
{8}2,{24}7x,6x,5x,{8}4x/3,{16}2,2,8,1,7,2,6,3,{8}5h[8:1],
2-6[8:1],{16}3,4,{4}2,8-4[8:1]/7-3[8:1],7/8,
{8}2V84[4:1],{16}3,4,{8}2,5,{16}5xv2[8:1],6x,7x,8x,{4}5x/1x,
{8}6,{16}2,1,{8}3,{16}7,8,{8}6,{16}4,5,{8}3,2/6,
1/7,7h[4:1]/1h[4:1],,,{2}8bw4[8:1],
{8}2/7,2h[16:1],2/7,2h[16:1],6/3,6h[16:1],6/3,6h[16:1],
4/7,4h[16:1],4/7,4h[16:1],5/2,5h[16:1],5/2,5h[16:1],
3/4,3h[16:1],3/4,3h[16:1],6/5,6h[16:1],6/5,6h[16:1],
2/8,2h[16:1],2/8,2h[16:1],7/1,7h[16:1],7/1,7h[16:1],
2-4[8:1],4-8[8:1],2,6h[4:1],,1-5-3[4:1],2,3-7[8:1],
,2h[4:1],,8,1V38[4:1],1,7,6,
5,4h[4:1],{16},,E2,B1,{8}B8,E6,C,E4,
,E7/D7,,E3/D3,{4}Ch[4:1],B8/E1/B1,
{8}4>2[8:1],4,5,6h[4:1],,1-5[8:1],2,1/3V17[4:1],
,7,6,5h[4:1],,4h[4:1],,6,
5-3[8:1],6-2[8:1],5x,6x,5-1[8:1],8<6[8:1],5x>3b[8:1],8x,
{4}5x,2b<3[8:3],{8},D8/E8,D6/E6,D4/E4,
7-3[8:1],2-5[8:1],7,2,,6h[4:1],4,3,
2-5[8:1],7-3[8:1],2,7,,1h[4:1],8,7,
6V47[4:1],6,3,2,1V38[4:1],1,7,6,
{4}5-8[8:1]*-2[8:1],5b,{8}7x<4[8:1]/3x>8[8:1],7/3,{4}3b/7b,
{8}6-1[8:1],3-7[8:1],6,3,,8h[4:1],1,2,
3-7[8:1],6-1[8:1],3,6,{16},,4,5,4,5,4,5,
{4}4b>1[4:1],{12}8x,7x,6x,{4}5x<8[4:1],{12}1,2,3,
{4}4-2[8:1]*-1[8:1],4x-6[8:1]*-7[8:1],4x-8b[8:1],4b,
{6}4/2-5[8:1],{12}4,2p7[8:3],,6,{4}2,{8}5,4,
{4}5<1[4:1],1>5[4:1],5<1[4:1],1V75b[4:1],
5x>1[4:1],1V35b[4:1],5x<1[4:1],1>1[2:1]*>3[8:1]*>4[16:3]*>6[16:5]*>7[8:3]*>8[16:7],
5xh[2:1],{12},,,,,,4-7[8:1],,5h[12:1],
{4}4,1w5[8:1],1b,{12}8-3[8:1],,1h[12:1],
{4}8,5w1[8:1],5b,{12}3>8[8:1],,4h[12:1],
{4}3,7s3[4:1],3-7[8:1],1,
{8}2>5[8:1],{16}1,1,{8}2,8,7v5[8:1]*-2[8:1],6/8,{16}7b,C,,,{4}6/3p7[8:1],
3/6v3[8:1],6/2V46[4:1],{12}2/6,,8,
{4}8-4[8:1],8/2pp6[8:3],1-7[8:1],1/C,
5<1[4:1],1q3[4:1],3<7[4:1],7>7[2:1]*>1[8:1]*>2[16:3]*>4[16:5]*>5[8:3]*>6[16:7],
3xh[2:1],{12},,,,,,2-5[8:1],,1h[12:1],
{6}2,{12}7h[12:1],6-2[8:1],,,{4}6/8V64[8:1],8/1,
{6}1/2-5[8:1],{12}8h[12:1],2,{24},{8}7,{4}6<1[8:1],{8}6/5,4,
{16}3,4,2,5,1,6,8,7,1,2,3,4,6,5,6,5,
{8}7-3[8:1],7,7/2-5[8:1],2,2/8p4[8:1],8,8/3p7[8:1],3,
{2}3b/6h[2:1],{8}E4,E3,{16}B8,B7,{8}E7,
,E4,E3,E2,E8,E7,E6,E5,
A3,{16}B7,E7,{8}A6,C,{16}B3,E3,{8}A2,E8,E4,
E6,B7,B3,E2,{16}A5,A6,A7,A8,A1,A2,A3,A4,
{4}1bq6[8:1],5,{12}8x,7,6,1x,2,3,
{4}5q2[8:1],{12}2x,3,4,8x,7,6,4x,3,2,
1/8b,7,6,5,4,3,2/7b,6,5,4,3,2,
{2}1h[2:1]/Ch[4:1],{16}8,2,8,2,7,3,6,4,
{8}5,4/2,4/2,5,{4}4b/6bV85[4:1],{8}6/3,4,
{6}3>8[8:1],{12}4h[12:1],3V51[4:1],{24},{8}5,3,6,{4}7h[4:1],
{8}8,1/7,2/6,6/2,{16}3,5,3,5,4x,4x,4x,4x,
{4}4xV28[8:1],4/7-5-8-4[8:3],{8}3,2,{4}1h[4:1],
{8}3,4/2,{16}5/3h[16:3],,,6,4,5,4,5z1[16:3],4s8[8:1],5,4,5,
,,,,{4}2-8-6-4[8:3]/7-3b[8:1],{2}7,
{16}6h[8:1]/2h[8:1],,,5/3,{8}5/3,5/3,6/2,1/7,{16}8,B8,C,B4,
2xh[8:1]/A4,,,3/5,{8}3/5,3/5,4/6,3/7,{16}8,2,8,2,
{8}1h[1:1],3,4,5,A6,B5,B4,A3,
{4}2b-6[8:1],2/1b-5[8:1],1/8b-4[8:1],8/7b-3[8:1],
7/8bw4[8:1],8b,{2}6h[8:3]/2h[8:3],
{8}6/2,6/2,,,{4}5h[4:1],4>8[4:1],
8<4[4:1],4V68b[4:1],8x>4[4:1],4q5[4:1],
5<1[4:1],1>1[2:1]*>3[8:1]*>4[16:3]*>6[16:5]*>7[8:3]*>8[16:7],{2}5xh[2:1],
{12},,,2-5[8:1],,1h[12:1],{4}2,8w4[8:1],
8x,{12}7-4[8:1],,8h[12:1],{4}7,1w5[8:1],
1x,{12}7,,8h[12:1],{32}7b/B7,Cf,B3,A3,,,,,{4}1,
{32}2b/1/B2,Cf,B6,A6,,,,,{4}8,{12}7/1b,1,1,7b,7,7,
{32}5bw1[8:1],6,7,8,1,2,3,4,{4}5b,{8}6x/3-8[8:1],4,3x/6-1[8:1],5,
6x/4-8[8:1],3,4x/5-1[8:1],6,5x/2-4[8:1],3,2x/7-5[8:1],6,
7x/1-5[8:1],2,1x/8-4[8:1],7,8x/2-5[8:1],1,2x/7v4[8:1],8,
7x/3v8[8:1],2,{4}3x/5,{16}6,7,8,1,E5,E6,E7,E8,
5,1,6,2,7,3,8,4,{6}1-5[8:1],{12}1,1x<7[8:1]*>3[8:1],,,{4}1xw5b[8:1],
1b,{6}8<6[8:1]*>2[8:1],{12}8,8xw4b[8:1],,,{4}8b,
{8}6/2,7/1,{16}8x,E8,B6,A5,4x,E4,B2,A1,
7x,E7,B5,A4,3x,E3,B1,A8,{8}6,5b/4b,7b/2b,6b/3b,
1bh[16:1]/8bh[16:1],6bh[16:1]/3bh[16:1],7bh[16:1]/2bh[16:1],5bh[16:1]/4bh[16:1],{4}6b/3bV15[4:1],{8}3,5,
{6}6-1[8:1],{12}5h[12:1],6,{24},{8}4,{16}3-5[8:1],,,4,{8}3>7>3[2:1],6,
{4}3,C,6V82[4:1],{8}2,4,
{4}6-2[8:1],7,8<4[4:1],4pp3[4:1],
{16}A3,D3,A2,D2,{4}A1,8/7-4[8:1],{8}7,3,
{6}2-8[8:1],{12}3h[12:1],2,{24},{8}7,{12}3,4,1,6,5,8,
{6}2-5[8:1],{12}1h[12:1],2,,,{4}6/7h[4:1],{16}E5,,,C,
{4}B1,7p4[2:1],{2}7,
{1}A3f,
E
