&title=雨上がりのアイリス
&artist=Re;IRIS
&first=0.02
&des=烧卖三姐妹
&lv_5=12+
&inote_5=(124)
{4},,,,
4s8[4:2],,,,8^3[4:1],,,,
2h[4:1],5p1b[4:1],6,,4q8b[4:1]/3,,,,
{16}
1^4[8:1]/5^8[8:1],,,26,,,,,,,,,
8^5[8:1]/4^1[8:1],,,73,,,,,,,,,
4h[16:1]/8h[16:1],,,,2b/6b,,,,
{4}
7/4h[4:1],5,2/5h[4:1],4,7q2[4:2],,,,
2-6[8:1],7-3[8:1],1p8[4:1],8<1[4:2],,,,
5-8[8:1],,3-6[8:1]/1-6[8:1],,2-6[8:1],,5qq3[4:1]/4pp6[4:1],,,
7-4[8:1],2,4-1[8:1]/3-8[8:1],,1^4[8:1]/8^5[8:1],,
{8}4xh[8:1],B7f,,,
2/4-1[8:1],,46,,5,,17,,
2h[4:1],,4h[4:1],,5h[4:1],,7,,
8^3[8:1],,87,,4^7b[8:1],,43,,
1s5[4:2]`8z4b[4:2],,,,,,,,
4^1[8:1]/5^8[8:1],,,,17,,82,,36,,1-4[8:1]/8-5[8:1],,,,,
7x,7h[4:2],,5h[4:1],,,,6,6bp1b[8:3],,,,,,,
4q8^5-1[4:3]/5p1^4-8[4:3],,,,,,,,,,
1^4qq4[4:2]/8^5pp5[4:2],,,,,,,,4-2[8:1]/5-7[8:1],,,,
1xqq5V71[4:2],,,,2x^5qq1[4:2],,,6x-8[8:1],6x,,,,
{16}
8/3h[4:1],,,6,,,4,,
1/6h[4:1],,,3,,,5,,
8/2h[4:1],,,6,,,4,,
1/7h[4:1],,,3,,,5,,
{8}
7-4b[8:1],,2-5[8:1],,8-4[8:1]*-4[8:1],,,,
6^1b[8:1],,3^6[8:1],,1^4[8:1]*^4[8:1],,,,
5-7[8:1],,5-1b[8:1]/1-5b[8:1],,1-3[8:1]*-3[8:1],,,,
{16}
4,5,4,5,4,5,,3h[16:5],,,1,,8,,7,,16,,,,38,,,1w5[8:1],,,,,,,,,
5,4,5,4,5,4,,6h[16:5],,,8,,1,,2,,3h[4:1],,4,,6h[4:1],,5x,4xq8[8:1],,,
1,,2,,3,,4>5pp4[4:2],,,,,,7x,7xh[4:1],,,,,,,
{8}
3,
3h[4:1],E1,4h[4:1],E1,5h[4:1],E1,6h[4:1],,
{16}
1^6[8:3],,,,,,2x,2x,,,,,
{4}
4-2[8:1]/5-7[8:1],
4bx-8[8:1]/5bx-1[8:1],
4bx-2[8:1]/5bx-7[8:1],
4bx-8[8:1]/5bx-1[8:1],4b/5b,
{16}
4,5,4,5,4,5,,3h[16:5],,,1,,8,,7,,16,,,,38,,,1w5[8:1],,,,,,,,,
6,5,6,5,6,5,,7h[16:5],,,1,,2,,3,,4h[4:1]`E7`B7,,,,5h[4:1],,,,E3/B2,,,,
4q8[8:1],,,,1,,2,,3,3,,8^3[16:1]*^5[16:1],,,,,,,
4-1[8:1],,5,,6,,7,,8,,1^6[8:1]*^4[8:1],,,,1w5[4:3],,,,
{4}1b,,,,,,,,
4-1[4:2],,,,4-1[4:2],,,,4-1[4:2],,,,4-1[4:2],,,,
4-1[4:2]`E6`A5`B5`E5,,,,4-1[4:2]`E6`A5`B5`E5,,,,
4-1[4:2]`E6`A5`B5`E5,,,,4-1[4:2]`E6`A5`B5`E5,,,,
{8}
4-1[4:2]`E6`A5`B5`E5,,,,,,,,4-1[4:2]`E6`A5`B5`E5,,,,,,,,
{16}
4^7[8:1],,,3,,,,,,,,,
5^2[8:1],,,6,,,,,,,,,
4^7[8:1]/3q8[8:1],,,1x/2x,,,,,,,,,
5^2[8:1]/6p1[8:1],,,8x/7x,,,,,,,,,
{16}
4-1[8:1],5,3,6,4,5,,6h[16:5],,,8,,1,,2,,83,,7,,61,,2x,3x,8x,7x,6x,,2,2,,,
5,4,6,3,5,4,,6h[16:5],,,8,,1,,2,,3h[4:1],,1,,6h[4:1],,8x,1xq5[8:1],,,
8,,7,,6,,5<4qq5[4:2],,,,,,2x,2xh[4:1],,,,,,,
{8}
3,
3h[4:1],E1,4h[4:1],E1,5h[4:1],E1,6h[4:1],,
{16}
1^6[8:3],,,,,,2x,,3x,,,,
{4}
4-2[8:1]/5-7[8:1],
4bx-8[8:1]/5bx-1[8:1],
4bx-2[8:1]/5bx-7[8:1],
4bx-8[8:1]/5bx-1[8:1],4b/5b,
{16}
4-1[8:1],5,3,6,4,5,,6h[16:5],,,8,,1,,2,,83,,7,,61,,2x,3x,8x,7x,6x,,
2h[16:1]/5h[16:1],,,,
3,4,3,4,3,4,,2h[16:5],,,8,,7,,6,,1x/6x`B1`B6,,,,1x/6x`B1`B6,,,,1x/6x`B1`B6,,,,
5^8[8:1],,,,4,,3,,2,2,,5^2[16:1]*^8[16:1],,,,,,,
1-4[8:1],,8,,7,,6,,5,,4^7[8:1]*^1[8:1],,,,4w8[4:3],,,,
{4}4b,,,,,,,,
5qq5[4:2]*-8[4:2],,,,
6<3[4:3],
