&title=ビビデバ
&artist=星街すいせい
&first=0.05
&des=乌尾峨
&wholebpm=120
&clock_count=4
&lv_5=13
&inote_5=(120)
{1},,
{8},,,C1h[10:1],,1x>4[8:1],,1/8,,5-1[8:1]/6-2[8:1],4,5/6,,
{16}8,,2,1,,4-1-7-3[150#16:6],6,,E5,,B1,,B6,,,,
{16}2h[16:1]/8<5[8:1],,,1,8,,2,,3-6[8:1]/4-1[8:1],,2/5,,3/4,,,,
{8}7h[8:1]/C1h[8:1],,3h[8:1]/C1h[8:1],,1b/5bx,
{16},2x,6-3b[8:1],,1,,2b/B6f,,,2,8-6>5[8:1],,1,,8,,
{16},1,7,2,6,3,5-7-4-8[3:1],4,6,3,5x,,2x,,1x,,
{8},4-2[10:1],4-6[10:1],4-1[10:1],4-7[10:1],4-8[10:1],4,4>1[10:1],E6/B6/B5,4s8[5:1],
{16}7h[16:1],,,,,,,1x,5h[16:1],,3/7x,,,,
{16}1-4>3-8b[4:1]/5-8<7-4b[4:1],6x,2,,1b/5b,,,B6/B2,,
{16}1-6[150#6:1],5qq3[90#10:1],2,,,,,,,
{32}E7,,,,E1/B8,,,,E2,,E3,,,,,,E6/B5,,,,C1h[8:1],,,,
{16},,,,2/5,,3h[8:1],,,4x-2v1[90#8:1],,,7,,4,,5,5xw1[90#10:1],,,3/7,,5,,,,
{32}A1/E1,A8/E8,A7/E7,A6/E6,,,,,
{16}2b/4x,,3,4,3x-8b[8:1],,5,,3b/7x<4[8:1],,,2,7,,3,,1,5,2,
{16}4xp1[90#16:3]*q7[90#16:3],,3,,,4,,,,A1/A7,,
{16}8xh[8:1],,2,,6,3,,5<7-1[150#6:1],,,3/5,,,,2x-5[8:1],,
{16}3,,2/1-6qq3b[16:7],,8
,,1/4
,,2xh[8:1],,,,,,B1/E1/E2,,,,
{16}8/6,,1,7,2xv5[8:1]*v7[8:1],,8h[16:1],,2,,,,E4/B3/B4,,
{16}6h[8:1],,3x,4,2,5<4[90#16:3],,3,,,1x/5,,,,,,
{16}2v5[8:1],,6,,2,7-1[90#10:1],,1xv2[90#10:1],,,7/3,,,,3-5[8:1],,5xv6[8:1]
,,
{16}3/7,,,,8x-4[8:1],,1-5b[8:1],,8-6b[8:1],,1-3[8:1],,8,,1,,5x,5,4x,4,
{24}3x,2,1-5[180#8:1]*-5[180#8:1],8x,7,6,5xb/1b,,,,,,
{16}B7/B8/E1/B6/C1/B2,,,,
{24}2/4,,3,5,,5,4,,4-2-5-1b[16:4],6,,6,,,E4f/7xbh[6:1],,,,,,,B6/E6/E7,,,B2/E2/E3,,,,
{24},,1/6,,2,5,,5,
{16}8-4[8:1],,7-5[8:1],,8<3[8:1],,7,,8,,,,
{16}6-1[8:1]/3x,,5/4,,6/3-8[8:1],,4,,6/3,,5,
{16}2x,7,1h[8:1],8h[8:1],,,
{16}2,5,4-8b[90#12:1],3>2-6[75#13:1],,1,,4bx,,3b,,,,
{16}8,8,1/2,,7-4-6-3b[150#17:5]/5,3x,,2bxh[6:1]/E7f,,,,,B1/B2/E2,,B5/B6/E6,,,,
{16}3-6[8:1],3,7-2b[8:1],7,3-8[8:1],,7-4b[8:1],,3>5b[6:1],,7,,3,,,,8-6[8:1],,1/7,,
{16}4/8-2[8:1],,3,,4/8-6-2-7b[16:4],5,,4,8,,4x,4x,,
{16}3h[16:1],,5,5x-8-6-3[75#16:2],,,,2h[8:1],,5,,,,2,,1x-4[8:1]/8x-3[8:1],,7,,
{16}1b-6[8:1]/8b-5[8:1],,,,8pp2<6pp8[16:5]/1,,,,8/4,,,,1xpp3[8:1],,2,,
{16}1b-6[8:1]/8b-5[8:1],,,,8pp4[16:4]/1,,,,8/3,,4x,,2x,,3,,2v5[8:1]/4,,
{16}3,6,2,,7,7,1s5[8:1],,8,8,1,,7,,6/2x>5[8:1],,8/1,7,2,,6,6,3,,2/7b,,
{16}8x-5[8:1]/1b-6[8:1],,2,,
{16}8-3[8:1]/1-4[8:1],,,,1qq7>3qq1[16:5]/8,,,,1/5,,,,8xqq6[8:1],,7,,
{16}8b-3[8:1]/1b-4[8:1],,,,1qq5[16:4]/8,,,,1/6,,5x,,7x,,6,,2v5[8:1]/4,,
{16}3,6,2,,7xp3[8:1],7,2h[8:1],,7,,,
{16}1,5,5,3,,
{16}7x/4,6/5,,5,6,6,3,1xw5[8:1],,,8,1b,,,,,,,
{8},,,,,,,,,,,7/3,6/2,5/1-5[240#6:1],1b,,
{24}2,,2,3,,3,4>1[8:1],,,,,,
{16}B6/4,,8,7,,1,8,2,7<4[8:1],3,8,1,7x,,E1,E7,E3,C1h[8:1],,4h[8:1],,7,,
{16}3,7-4[8:1],2,6,1,7,,,,2h[8:1],,5,2,,
{16}2x,7,7,1w5[8:1],1,8,8,1,,,,
{64}
{16}6x/4x,,2,,
{24}7-4[144#8:1],,,,,7/1,,,,1/3,,,2-5[144#8:1],,,,,2/8,,,,8/6,,,
{24}7-4[144#8:1]/5-2[144#8:1],,,,,7/5,,,,1/5x,,,7h[8:1]/3xh[8:1],,,,,,6,,,
{16}2,8,3h[8:1],,C1,,6h[8:1],,C1,,7/2,,,,1,8,2,7,
{16}4h[10:1]/5h[10:1],,2h[10:1]/7h[10:1],,3h[10:1]/6h[10:1],,1h[10:1]/8h[10:1],,C1f,,
{8},,,
{16}C1h[8:14],,,,B1,,B2,,,,B4,,B3,,,,2-5[8:1],,,,2,,,,3v1[8:1],,4,,3,,,,
{16}C1h[80:125],,,,B8,,B7,,,,B5,,B6,,,7h[8:1],,,,,
{32}8x-6-4b[90#12:1],,,,E1,B1,B2,,,,8,,,,,,
{24}2x-8[8:1],,2x,7xv4[8:1],,7x,2,,,7,,,
{16}1,,3/5,,6-1[8:1],6,2,,6,,3<5[8:1],,7,,3,,8,8v3[8:1]*v5[8:1],2,6,,8,,,
{16}B6/B2,,1/7,,
{24}2xv4[8:1],,2,6xv8[8:1],,6,2,,,6,,,1h[1:0],,
{32}2x,3x,4xh[10:1],,,B7,B8,B1,,,,,,
{8}C1h[2:1],,,,,,
{48}1b/8b,2x/7x,3x/6x,4x/5x,,,,,,,,,
{48}1bx-6[8:1]/8bx-5[8:1],E2f,B2,B3,E4,,,,,,,,
{16}8pp2<6pp8[16:5]/1,,,,8/4,,,,1xpp3[8:1],,2,,
{16}1b-6[8:1]/8b-5[8:1],,,,8pp4[16:4]/1,,,,8/3,,4x,,2x,,3,,2w6[8:1]/6,,,,,,,,
{16}8,,7,,1-5[8:1]*s5[8:1],6,,,1,,,,4h[1:0],5,3,,4h[1:0],6,2,,B4,B7,B1,,
{48}8bx-3[8:1]/1bx-4[8:1],E8f,B7,B6,E6,,,,,,,,
{16}1qq7>3qq1[16:5]/8,,,,1/5,,,,8xqq6[8:1],,7,,
{16}8b-3[8:1]/1b-4[8:1],,,,1qq5[16:4]/8,,,,1/6,,5x,,7x,,6,,7w3[8:1]/3,,,,,,,,
{16}1,,6,,1-3-5[6:1]/8v6[6:1],2,,,8/1,,,,5h[1:0],7,3,,
{24}2/4,,3,5,,5,4,,4-2-5-1[16:4],6,,6,,,E4/7xh[6:1],,,,,,,B6/E6/E7,,,B2/E2/E3,,,,
{24},,1/6,,2,5,,5,
{16}8-4[8:1],,7-5[8:1],,8<3[8:1],,7,,8,,,,
{16}6-1[8:1]/3x,,5/4,,6/3-8[8:1],,4,,6/3,,5,
{16}2x,7,1h[8:1],8h[8:1],,,
{16}2,5,4-8[90#12:1],3>2-6[75#13:1],,1,,4x,,3,,,,
{16}8x,8,1/2,,7-4-6-3b[150#17:5]/5,3x,,2bxh[6:1]/E7f,,,,,B1/B2/E2,,B5/B6/E6,,,,
{16}3v6b[8:1],3,7v2b[8:1],7,3-8b[8:1],,7-4b[8:1],,3>5b[6:1],,7,,3,,,,8-6b[8:1],,1/7,,
{16}4/8-2b[8:1],,3,,4/8-6-2-7b[16:4],5,,4,8,,4x,4x,,
{16}3h[16:1],,5,5x-8-6-3b[75#16:2],,,,2h[8:1],,5,,,,2,,1x-4[8:1]/8x-3[8:1],,7,,
{16}1b-6[8:1]/8b-5[8:1],,,,8pp2<6pp8[16:5]/1,,,,8/4,,,,1xpp3[8:1],,2,,
{16}1b-6[8:1]/8b-5[8:1],,,,8pp2<4[16:5]/12,,,,8/3,,4x,,2,,3,,2v5[8:1]/4,,
{16}3,6,2,,7,7,1s5[8:1],,8,8,1,,7,,6/2x>5[8:1],,8/1,7,2,,6,6,3,,2/7b,,
{16}8x-5[8:1]/1b-6[8:1],,2,,
{16}8-3[8:1]/1-4[8:1],,,,1qq7>3qq1[16:5]/8,,,,1/5,,,,8xqq6[8:1],,7,,
{16}8b-3[8:1]/1b-4[8:1],,,,1qq7>5[16:5]/8,,,,1/6,,5x,,7x,,6,,2v5[8:1]/4,,
{16}3,6,2,,7xp3[8:1],7,2h[8:1],,7,,,
{16}1,5,5,3,,
{16}7x/4,6/5,,5,6,6,3,7x-2b[8:1],,,5h[16:1],
{48}7b,E8,B8,B1,E2,
{16},,,,,,,,,,,,,,,C1,,
{16}8,,8,2,,3,6,2,4pp4b[6:1]*qq4[6:1],1,,,C1h[8:1],,,,
E
&inote_7=(120)
{1},,
{8},,,C1h[10:1],,1x>4[8:1],,1/8,,5-1[8:1]/6-2[8:1],4,5/6,,
{16}8,,2,1,,4-1-7-3[150#16:6],6,,E5,,B1,,B6,,,,
{16}2h[16:1]/8<5[8:1],,,1,8,,2,,3-6[8:1]/4-1[8:1],,2/5,,3/4,,,,
{8}7h[8:1]/C1h[8:1],,3h[8:1]/C1h[8:1],,1b/5bx,
{16},2x,6v3b[8:1],,1,,2b/B6f,,,2,8-6>5[8:1],,1,,8,,
{16},1,7,2,6,3,5-3-6-2[3:1],4,6,3,5x,,1x,,8x,,
{8},4-2[10:1],4-6[10:1],4-1[10:1],4-7[10:1],4-8[10:1],4,4>1[10:1],E6/B6/B5,4s8[5:1],
{16}7h[16:1],,,,,,,1x,5h[16:1],,3/7x,,,,
{16}1v4>3-8b[4:1]/5v8<7-4b[4:1],6x,2,,1b/5b,,,E7/E3,,
{16}1-7<6[150#6:1],5qq3[90#10:1],2,1x,,,5x,,,
{32}E7,,,,E1/B8,,,,E2,,E3,,,,,,E6/B5,,,,C1h[8:1],,,,
{16},,,,2/5,,3h[8:1],,,4x-2v1[90#8:1],,,7,,4,,5,5xw1[90#10:1],,,3/7,,5,,,,
{32}A1/E1,A8/E8,A7/E7,A6/E6,,,,,
{16}2b/4x,,3,4,3x-8b[8:1],,5,,3b/7x<4[8:1],,,2,7,,3,,1,5,2,
{16}4xp1[90#16:3]*q7[90#16:3],,3,,,4,,,,A1/A7,,
{16}8xh[8:1],,2,,6,3,,5<7-1[150#6:1],,,3/5,,,,2x-5[8:1],,
{16}3,,2/1-6qq3b[16:7],,8
,,1/4
,,2xh[8:1],,,,,,B1/E1/E2,,,,
{16}8/6,,1,7,2xv5[8:1]*v7[8:1],,8h[16:1],,2,,,,E4/B3/B4,,
{16}6h[8:1],,3x,4,2,5<5[90#16:3],,3,,,1x/5,,,,,,
{16}2v5[8:1],,6,,2,7-1[90#10:1],,1xv2[90#10:1],,,7/3,,A1,,3-5[8:1],,5xv6[8:1],,
{16}3/7,,A5,,8x-4[8:1],,1-5b[8:1],,8-6b[8:1],,1-3[8:1],,8,,1,,5x,5,4x,4,
{24}3x,2,1-5[180#8:1]*-5[180#8:1],8x,7,6,5xb/1b,,,,,,
{16}B7/B8/E1/B6/C1/B2,,,,
{24}2/4,,3,5,,5,4,,4-2-5-1b[16:4],6,,6,,,E4f/7xbh[6:1],,,,,,,B6/E6/E7,,,B2/E2/E3,,,,
{24},,1/6,,2,5,,5,
{16}8-4[8:1],,7-5[8:1],,8<3[8:1],,7,,8,,,,
{16}6-1[8:1]/3x,,5/4,,6/3-8[8:1],,4,,6/3,,5,
{16}2x,7,1xh[8:1],8h[8:1],,,
{16}2,6,3qq6[68#12:1],4-8b[120#10:1],,2,,4bx,,3b,,,,
{16}8/2x,8x/2,1,,7-4-6-3b[150#17:5]/5,3x,,2bxh[6:1]/E7f,,,,,B1/B2/E2,,B5/B6/E6,,,,
{16}3v6[8:1],3,7v2b[8:1],7,3-8[8:1],,7-4b[8:1],,3>5b[6:1],,7,,3,,,,8-6[8:1],,1/7,,
{16}4/8-2[8:1],,3,,4/8-6-2-7b[16:4],5,,4,8,,4x,4x,,
{16}3h[16:1],,5,5x-8-6-3[75#16:2],,,,2h[8:1],,5,,,,2,,1x-4[8:1]/8x-3[8:1],,7,,
{16}1b-6[8:1]/8b-5[8:1],,,,8pp2<6pp8[16:5]/1,,,,8/4,,,,1xpp3[8:1],,2,,
{16}1b-6[8:1]/8b-5[8:1],,,,8pp2<4[16:4]/12,,,,8/3,,4x,,2,,3,,2v5[8:1]/4,,
{16}3,6,2,,7,7,1s5[8:1],,8,8,1,,7,,6/2x>5[8:1],,8,8,1/2,,6,6,3,,2/7b,,
{16}8x-5[8:1]/1b-6[8:1],,2,,
{16}8-3[8:1]/1-4[8:1],,,,1qq7>3qq1[16:5]/8,,,,1/5,,,,8xqq6[8:1],,7,,
{16}8b-3[8:1]/1b-4[8:1],,,,8pp2<4[16:4]/1,,,,8/3,,4x,,2,,3,,2v5[8:1]/4,,
{16}3,6,2,,7xp3[8:1],7,2h[8:1],,7,,,
{16}1,5,5,3,,
{16}7x/4,6/5,,5,6,6,3,1xw5[8:1],,,2/8,1b,,,,,,,
{8},,,,,,,,,,,C1/3,C1/2,C1/1-5[240#6:1],1b,,
{24}2,,4,6,,4,2,,,,,,
{16}B4/E5/B5,,2,1,,1,8,2,7,3,8,1,7x,,D2,A2,D3,C1h[8:1],,1h[8:1],,7,
{1},,,,,,,,,,,,,,,,,,,,,
{16},,,,
{64},,
{24},,2/4,,3,5,,5,4,,4-2-5-1[16:4],6,,6,,,E4/7xh[6:1],,,,,,,B6/E6/E7,,,B2/E2/E3,,,,
{24},,1/6,,2,5,,5,
{16}8-4[8:1],,7-5[8:1],,8<3[8:1],,7,,8,,,,
{16}6-1[8:1]/3x,,5/4,,6/3-8[8:1],,4,,6/3,,5,
{16}2x,7,1xh[8:1],8h[8:1],,,
{16}2,6,3qq6[68#12:1],4-8[120#10:1],,2,,4x,,3,,,,
{16}8/2x,8x/2,1,,7-4-6-3b[150#17:5]/5,3x,,2bxh[6:1]/E7f,,,,,B1/B2/E2,,B5/B6/E6,,,,
{16}3v6[8:1],3,7v2b[8:1],7,3-8[8:1],,7-4b[8:1],,3>5b[6:1],,7,,3,,,,8-6[8:1],,1/7,,
{16}4/8-2[8:1],,3,,4/8-6-2-7b[16:4],5,,4,8,,4x,4x,,
{16}3h[16:1],,5,5x-8-6-3[75#16:2],,,,2h[8:1],,5,,,,2,,1x-4[8:1]/8x-3[8:1],,7,,
{16}1b-6[8:1]/8b-5[8:1],,,,8pp2<6pp8[16:5]/1,,,,8/4,,,,1xpp3[8:1],,2,,
{16}1b-6[8:1]/8b-5[8:1],,,,8pp2<4[16:4]/12,,,,8/3,,4x,,2,,3,,2v5[8:1]/4,,
{16}3,6,2,,7,7,1s5[8:1],,8,8,1,,7,,6/2x>5[8:1],,8,8,1/2,,6,6,3,,2/7b,,
{16}8x-5[8:1]/1b-6[8:1],,2,,
{16}8-3[8:1]/1-4[8:1],,,,1qq7>3qq1[16:5]/8,,,,1/5,,,,8xqq6[8:1],,7,,
{16}8b-3[8:1]/1b-4[8:1],,,,8pp2<4[16:4]/1,,,,8/3,,4x,,2,,3,,2v5[8:1]/4,,
{16}3,6,2,,7xp3[8:1],7,2h[8:1],,7,,,
{16}1,5,5,3,,
{16}7x/4,6/5,,5,6,6,3,7x-2b[8:1],,,5h[16:1],
{48}7b,E8,B8,B1,E2,
{16},,,,,,,,,,,,,,,B3,,
{16}8,,8,2,,3,6,2,4pp4b[6:1]*qq4[6:1],1,,,C1h[8:1],
E
